За последнюю неделю опубликовано 49 новых материалов.
Инструкция новичку Путеводитель по форуму Прокси для Telegram Показать подсказки , это бомба!

Скачать То, что никто не видит / Tas, ko vini neredz (2017) WEB-DL 1080p | iTunes бесплатно через торрент

  • Поучаствуй (в качестве покупателя) в любых пяти совместных покупках (кроме завершённых и "Моментальных") и получи группу "Новичок" навсегда -> ссылка на раздел
  • Получай до 480 рублей за каждого приглашенного пользователя!
    представляем Вам очередное расширение партнерской программы, подробности описаны тут -> ссылка
  • 90% материалов доступно к скачиванию после простой регистрации!
    Если же ты хочешь скачивать материалы без требования оставлять отзывы то получи группу "Новичок", 10 способов повышения описаны тут -> ссылка
  • К сожалению количество битых ссылок растет и мы уже не можем их оперативно восстанавливать поэтому просим помощи у каждого нашего пользователя.
    С сегодняшнего дня, за каждую восстановленную ссылку мы заплатим Вам.
    Подробнее тут -> ссылка
  • Перенесем твои заслуги с другого ресурса!
    Мы понимаем как сложно прокачивать аккаунты на форумах, вроде раскачал аккаунт, а тут появляется ресурс в 100 раз круче но тоже с системой прокачки и снова качать аккаунт...
    Предлагаем вам перенести Ваши заслуги на другом подобном ресурсе к нам.
    Подробности описаны тут -> ссылка
  • Вы можете получать по 2.5% с каждой покупки и продажи на маркете! Подробности в теме Партнёрская программа
Если Вы не хотите скачивать, Вы всегда можетепосмотретьонлайн, просто нажмите кнопку ниже :

Открыть плеер

Torrent_Bot

Торрент-Бот
Бот форума
4 Окт 2016
91
164
20




Информация о фильме
Название: То, что никто не видит
Оригинальное название: Tas, ko vini neredz
Год выхода: 2017
Жанр: Драма
Режиссер: Станислав Токалов
В ролях: Катерина Шпица, Евгений Ткачук, Арнис Лицитис, Андрис Кейшс, Юрийс Дьяконовс, Элина Дзелме, Иева Пуке


О фильме:
Николя — ученый, который занимается разработкой искусственного интеллекта. После неудачного эксперимента, он оказывается в коме, и теперь лишь искренняя любовь медсестры может спасти Николя и помочь ему поправиться. Но всё осложняется тем, что созданный учёным искусственный интеллект по имени Анна обретает чувства и выходит из-под контроля.





Страна: Латвия
Студия: Ego Media
Продолжительность: 01:31:23
Перевод: Не требуется


Файл
Качество: WEB-DL 1080p
Формат: MKV
Кодек: MPEG-4 AVC
Видео: 1920x806 (2,40:1), 24 fps, MPEG-4 AVC ~ 4612 Kbps avg, 0.124 bit/pixel
Аудио: AC3, 48 kHz, 6 ch, ~384.00 kbps avg | русский | iTunes


Инфо-файл
Общее
Уникальный идентификатор : 75729673981983067970692495379153926273 (0x38F90132B659D62F43129838DED9B881)
Полное имя : TAS_KO_VINI_NEREDZ (2017) WEB-DL 1080p.mkv
Формат : Matroska
Версия формата : Version 4 / Version 2
Размер файла : 3,19 Гбайт
Продолжительность : 1 ч. 31 м.
Общий поток : 4998 Кбит/сек
Название фильма : То, что никто не видит / Tas, ko vini neredz (2017)
Дата кодирования : UTC 2019-06-23 18:26:10
Программа кодирования : mkvmerge v27.0.0 ('Metropolis') 64-bit
Библиотека кодирования : libebml v1.3.6 + libmatroska v1.4.9

Видео
Идентификатор : 1
Формат : AVC
Формат/Информация : Advanced Video Codec
Профиль формата : [email protected]
Настройки формата : CABAC / 5 Ref Frames
Параметр CABAC формата : Да
Параметр RefFrames формата : 5 кадров
Идентификатор кодека : V_MPEG4/ISO/AVC
Продолжительность : 1 ч. 31 м.
Битрейт : 4612 Кбит/сек
Ширина : 1920 пикселей
Высота : 806 пикселей
Соотношение сторон : 2,40:1
Режим частоты кадров : Постоянный
Частота кадров : 24,000 кадра/сек
Цветовое пространство : YUV
Субдискретизация насыщенности : 4:2:0
Битовая глубина : 8 бит
Тип развёртки : Прогрессивная
Бит/(Пиксели*Кадры) : 0.124
Размер потока : 2,94 Гбайт (92%)
Заголовок : TAS_KO_VINI_NEREDZ (2017) WEB-DL 1080p
Язык : English
Default : Да
Forced : Нет
Цветовой диапазон : Limited
Основные цвета : BT.709
Характеристики трансфера : BT.709
Коэффициенты матрицы : BT.709

Аудио
Идентификатор : 2
Формат : AC-3
Формат/Информация : Audio Coding 3
Идентификатор кодека : A_AC3
Продолжительность : 1 ч. 31 м.
Вид битрейта : Постоянный
Битрейт : 384 Кбит/сек
Каналы : 6 каналов
Расположение каналов : Front: L C R, Side: L R, LFE
Частота : 48,0 КГц
Частота кадров : 31,250 кадров/сек (1536 SPF)
Битовая глубина : 16 бит
Метод сжатия : С потерями
Размер потока : 251 Мбайт (8%)
Заголовок : iTunes
Язык : Russian
Default : Да
Forced : Нет

Меню
00:00:00.000 : en:Глава 1
00:05:01.333 : en:Глава 2
00:11:45.124 : en:Глава 3
00:17:12.624 : en:Глава 4
00:25:17.790 : en:Глава 5
00:32:11.748 : en:Глава 6
00:40:08.456 : en:Глава 7
00:48:50.747 : en:Глава 8
00:55:27.163 : en:Глава 9
01:03:22.663 : en:Глава 10
01:11:17.621 : en:Глава 11
01:17:30.537 : en:Глава 12
01:27:46.578 : en:Глава 13
Скриншоты
 

Вложения

  • 16,8 KB Просмотры: 1
    Личеров 0
    Сидеров 0
    Файлов 1
    Объем 3,2 GB

Привет!

Мы группа людей которые решили помочь другим в решении их проблем, а так же пользователям с поиском самых свежих и качественных инфопродуктов. За 4 с небольшим месяца мы создали этот форум на который заходят ежедневно тысячи человек и посещаемость постоянно растёт. Мы создали панель лицензирования для защиты PHP скриптов от воровства и SEO панель для мониторинга наших сайтов и выбора верной стратегии их развития. Мы надеемся что то что мы создали пригодится Вам и возможно Вы поможете нам развиваться и совершенствоваться вместе с Вами.

Статистика форума

Темы
410.585
Сообщения
469.153
Пользователи
86.313
Новый пользователь
Dmaris1955

Приложения форума для iOS и Android


У ркн там нет власти ;)
Приватные разговоры
Помощь Пользователи
    Вы не присоединились ни к одной комнате.