За последнюю неделю опубликовано 30 новых материалов.
Инструкция новичку Путеводитель по форуму Прокси для Telegram Показать подсказки , это бомба!

Скачать Тёмное наследие / Inheritance (2020) BDRip 1080p от селезень | iTunes бесплатно через торрент

  • Поучаствуй (в качестве покупателя) в любых пяти совместных покупках (кроме завершённых и "Моментальных") и получи группу "Новичок" навсегда -> ссылка на раздел
  • Получай до 480 рублей за каждого приглашенного пользователя!
    представляем Вам очередное расширение партнерской программы, подробности описаны тут -> ссылка
  • 90% материалов доступно к скачиванию после простой регистрации!
    Если же ты хочешь скачивать материалы без требования оставлять отзывы то получи группу "Новичок", 10 способов повышения описаны тут -> ссылка
  • К сожалению количество битых ссылок растет и мы уже не можем их оперативно восстанавливать поэтому просим помощи у каждого нашего пользователя.
    С сегодняшнего дня, за каждую восстановленную ссылку мы заплатим Вам.
    Подробнее тут -> ссылка
  • Перенесем твои заслуги с другого ресурса!
    Мы понимаем как сложно прокачивать аккаунты на форумах, вроде раскачал аккаунт, а тут появляется ресурс в 100 раз круче но тоже с системой прокачки и снова качать аккаунт...
    Предлагаем вам перенести Ваши заслуги на другом подобном ресурсе к нам.
    Подробности описаны тут -> ссылка
  • Вы можете получать по 2.5% с каждой покупки и продажи на маркете! Подробности в теме Партнёрская программа
Если Вы не хотите скачивать, Вы всегда можетепосмотретьонлайн, просто нажмите кнопку ниже :

Открыть плеер

Torrent_Bot

Торрент-Бот
Бот форума
4 Окт 2016
93
160
20


Информация о фильме
Название: Темное наследие
Оригинальное название: Inheritance
Год выхода: 2020
Жанр: Триллер, драма, детектив
Режиссер: Вон Стайн
В ролях: Лили Коллинз, Саймон Пегг, Конни Нильсен, Чейс Кроуфорд, Марке Ричардсон II, Майкл Бич, Крис Гэнн, Хосе Херрера, Кристина ДеРоса, Харрисон Стоун



О фильме: Богатый и влиятельный отец семейства внезапно умирает. Его жена и дочь начинают разбираться в оставленном им наследстве. Погружаясь в прошлое отца, девушка узнает о завещании, оставленном для нее одной. Однако она не подозревает, что скоро столкнется с правдой, которая станет угрозой для всей её семьи.

Страна: США
Студия: Highland Film Group (HFG), Ingenious Media, Southpaw Entertainment
Продолжительность: 01:51:27
Перевод: Дублированный | iTunes

Качество: BDRip 1080p
Видео: MPEG-4 AVC, 1920x802, 9933 Kbit/s, 23.976 fps
Аудио #01: 48 kHz, AC3, 5.1, 384 Kbps | iTunes | RUS |
Аудио #02: 48 kHz, AC3, 5.1, 640 Kbps | Оригинал | ENG |
Субтитры: Русские (Full), английские



MI
General
Unique ID : 104595848379560636382948107473411485854 (0x4EB06D7A29349306F506230FCE4DB09E)
Complete name : E:Video111Inheritance.2020.BDRip.1080p.seleZen.mkv
Format : Matroska
Format version : Version 4
File size : 8.53 GiB
Duration : 1 h 51 min
Overall bit rate : 11.0 Mb/s
Movie name : Inheritance 2020 from селезень
Encoded date : UTC 2020-07-09 13:35:16
Writing application : mkvmerge v40.0.0 ('Old Town Road + Pony') 64-bit
Writing library : libebml v1.3.9 + libmatroska v1.5.2
Cover : Yes
Attachments : cover.jpg

Video
ID : 1
Format : AVC
Format/Info : Advanced Video Codec
Format profile : [email protected]
Format settings : CABAC / 5 Ref Frames
Format settings, CABAC : Yes
Format settings, Reference frames : 5 frames
Codec ID : V_MPEG4/ISO/AVC
Duration : 1 h 51 min
Bit rate : 9 933 kb/s
Width : 1 920 pixels
Height : 802 pixels
Display aspect ratio : 2.40:1
Frame rate mode : Constant
Frame rate : 23.976 (24000/1001) FPS
Color space : YUV
Chroma subsampling : 4:2:0
Bit depth : 8 bits
Scan type : Progressive
Bits/(Pixel*Frame) : 0.269
Stream size : 7.73 GiB (91%)
Title : Encoded by seleZen
Writing library : x264 core 142 r2431+42 c69a006 tMod [[email protected] X86_64]
Encoding settings : cabac=1 / ref=5 / deblock=1:-2:-2 / analyse=0x3:0x133 / me=umh / subme=10 / psy=1 / fade_compensate=0.00 / psy_rd=1.00:0.00 / mixed_ref=1 / me_range=32 / chroma_me=1 / trellis=2 / 8x8dct=1 / cqm=0 / deadzone=21,11 / fast_pskip=0 / chroma_qp_offset=-2 / threads=24 / lookahead_threads=4 / sliced_threads=0 / nr=0 / decimate=0 / interlaced=0 / bluray_compat=0 / constrained_intra=0 / fgo=0 / bframes=9 / b_pyramid=2 / b_adapt=2 / b_bias=0 / direct=1 / weightb=1 / open_gop=0 / weightp=2 / keyint=240 / keyint_min=23 / scenecut=40 / intra_refresh=0 / rc_lookahead=50 / rc=crf / mbtree=0 / crf=16.8000 / qcomp=0.60 / qpmin=0:0:0 / qpmax=51:51:51 / qpstep=4 / vbv_maxrate=50000 / vbv_bufsize=62500 / crf_max=0.0 / nal_hrd=none / filler=0 / ip_ratio=1.40 / pb_ratio=1.30 / aq=3:0.80 / aq-sensitivity=10.00 / aq-factor=1.00:1.00:1.00 / aq2=0 / aq3=0
Language : English
Default : Yes
Forced : No

Audio #1
ID : 2
Format : AC-3
Format/Info : Audio Coding 3
Commercial name : Dolby Digital
Codec ID : A_AC3
Duration : 1 h 51 min
Bit rate mode : Constant
Bit rate : 384 kb/s
Channel(s) : 6 channels
Channel layout : L R C LFE Ls Rs
Sampling rate : 48.0 kHz
Frame rate : 31.250 FPS (1536 SPF)
Compression mode : Lossy
Stream size : 306 MiB (4%)
Title : iTunes
Language : Russian
Service kind : Complete Main
Default : Yes
Forced : Yes

Audio #2
ID : 3
Format : AC-3
Format/Info : Audio Coding 3
Commercial name : Dolby Digital
Codec ID : A_AC3
Duration : 1 h 51 min
Bit rate mode : Constant
Bit rate : 640 kb/s
Channel(s) : 6 channels
Channel layout : L R C LFE Ls Rs
Sampling rate : 48.0 kHz
Frame rate : 31.250 FPS (1536 SPF)
Compression mode : Lossy
Stream size : 510 MiB (6%)
Title : Original
Language : English
Service kind : Complete Main
Default : No
Forced : No

Text #1
ID : 4
Format : UTF-8
Codec ID : S_TEXT/UTF8
Codec ID/Info : UTF-8 Plain Text
Duration : 1 h 47 min
Bit rate : 85 b/s
Count of elements : 1240
Stream size : 67.1 KiB (0%)
Title : Full
Language : Russian
Default : No
Forced : No

Text #2
ID : 5
Format : UTF-8
Codec ID : S_TEXT/UTF8
Codec ID/Info : UTF-8 Plain Text
Duration : 1 h 42 min
Bit rate : 53 b/s
Count of elements : 1380
Stream size : 39.8 KiB (0%)
Title : Full
Language : English
Default : No
Forced : No

Menu
00:00:00.000 : en:Chapter 01
00:14:12.852 : en:Chapter 02
00:29:59.005 : en:Chapter 03
00:42:51.944 : en:Chapter 04
00:56:45.944 : en:Chapter 05
01:12:59.083 : en:Chapter 06
01:27:31.913 : en:Chapter 07
01:45:38.415 : en:Chapter 08

Релиз от:

 

Вложения

  • 11,6 KB Просмотры: 0
    Личеров 0
    Сидеров 0
    Файлов 1
    Объем 8,5 GB

Привет!

Мы группа людей которые решили помочь другим в решении их проблем, а так же пользователям с поиском самых свежих и качественных инфопродуктов. За 4 с небольшим месяца мы создали этот форум на который заходят ежедневно тысячи человек и посещаемость постоянно растёт. Мы создали панель лицензирования для защиты PHP скриптов от воровства и SEO панель для мониторинга наших сайтов и выбора верной стратегии их развития. Мы надеемся что то что мы создали пригодится Вам и возможно Вы поможете нам развиваться и совершенствоваться вместе с Вами.

Статистика форума

Темы
406.605
Сообщения
465.028
Пользователи
84.390
Новый пользователь
князь владимир

Приложения форума для iOS и Android


У ркн там нет власти ;)
Приватные разговоры
Помощь Пользователи
    Вы не присоединились ни к одной комнате.