За последнюю неделю опубликовано 47 новых материалов.
Инструкция новичку Путеводитель по форуму Прокси для Telegram Показать подсказки , это бомба!

Скачать Thom Yorke - Anima [24bit Hi-Res] (2019) FLAC бесплатно через торрент

  • Поучаствуй (в качестве покупателя) в любых пяти совместных покупках (кроме завершённых и "Моментальных") и получи группу "Новичок" навсегда -> ссылка на раздел
  • Получай до 480 рублей за каждого приглашенного пользователя!
    представляем Вам очередное расширение партнерской программы, подробности описаны тут -> ссылка
  • 90% материалов доступно к скачиванию после простой регистрации!
    Если же ты хочешь скачивать материалы без требования оставлять отзывы то получи группу "Новичок", 10 способов повышения описаны тут -> ссылка
  • К сожалению количество битых ссылок растет и мы уже не можем их оперативно восстанавливать поэтому просим помощи у каждого нашего пользователя.
    С сегодняшнего дня, за каждую восстановленную ссылку мы заплатим Вам.
    Подробнее тут -> ссылка
  • Перенесем твои заслуги с другого ресурса!
    Мы понимаем как сложно прокачивать аккаунты на форумах, вроде раскачал аккаунт, а тут появляется ресурс в 100 раз круче но тоже с системой прокачки и снова качать аккаунт...
    Предлагаем вам перенести Ваши заслуги на другом подобном ресурсе к нам.
    Подробности описаны тут -> ссылка
  • Вы можете получать по 2.5% с каждой покупки и продажи на маркете! Подробности в теме Партнёрская программа

Torrent_Bot

Торрент-Бот
Бот форума
4 Окт 2016
90
166
20



Исполнитель: Thom Yorke
Название: Anima
Страна: UK
Жанр: Indie-Rock, IDM, Experimental
Год: 2019
Продолжительность: 00:47:49
Битрейт аудио: Lossless
Формат/Кодек: FLAC
Тип рипа: tracks
Разрядность: 24/44,1
Количество каналов: 2.0


01. Traffic (05:17)
02. Last I Heard (...He Was Circling the Drain) (05:06)
03. Twist (07:03)
04. Dawn Chorus (05:23)
05. I Am a Very Rude Person (03:44)
06. Not The News (03:57)
07. The Axe (06:59)
08. Impossible Knots (04:19)
09. Runwayaway (05:56)
DR
foobar2000 1.4.4 / Замер динамического диапазона (DR) 1.1.1
Дата отчёта: 2019-06-28 11:02:52

--------------------------------------------------------------------------------
Анализ: Thom Yorke / ANIMA
--------------------------------------------------------------------------------

DR Пики RMS Продолжительность трека
--------------------------------------------------------------------------------
DR4 0.00 дБ -5.77 дБ 5:18 01-Traffic
DR5 0.00 дБ -8.36 дБ 5:07 02-Last I Heard (...He Was Circling the Drain)
DR5 0.00 дБ -6.72 дБ 7:03 03-Twist
DR3 0.00 дБ -3.96 дБ 5:23 04-Dawn Chorus
DR4 -0.09 дБ -6.38 дБ 3:45 05-I Am a Very Rude Person
DR6 0.00 дБ -8.72 дБ 3:57 06-Not The News
DR5 0.00 дБ -7.11 дБ 6:59 07-The Axe
DR6 0.00 дБ -7.46 дБ 4:20 08-Impossible Knots
DR4 0.00 дБ -7.16 дБ 5:57 09-Runwayaway
--------------------------------------------------------------------------------

Количество треков: 9
Реальные значения DR: DR5

Частота: 44100 Гц
Каналов: 2
Разрядность: 24
Битрейт: 1431 кбит/с
Кодек: FLAC
================================================================================
 

Вложения

  • 11,5 KB Просмотры: 1
    Личеров 0
    Сидеров 0
    Файлов 11
    Объем 515,3 MB

Привет!

Мы группа людей которые решили помочь другим в решении их проблем, а так же пользователям с поиском самых свежих и качественных инфопродуктов. За 4 с небольшим месяца мы создали этот форум на который заходят ежедневно тысячи человек и посещаемость постоянно растёт. Мы создали панель лицензирования для защиты PHP скриптов от воровства и SEO панель для мониторинга наших сайтов и выбора верной стратегии их развития. Мы надеемся что то что мы создали пригодится Вам и возможно Вы поможете нам развиваться и совершенствоваться вместе с Вами.

Статистика форума

Темы
410.885
Сообщения
469.444
Пользователи
87.884
Новый пользователь
SOOOOOFFFFKKKKAAAAA

Приложения форума для iOS и Android


У ркн там нет власти ;)
Приватные разговоры
Помощь Пользователи
    Вы не присоединились ни к одной комнате.