За последнюю неделю опубликовано 86 новых материалов.
Инструкция новичку Путеводитель по форуму Прокси для Telegram Показать подсказки , это бомба!

Скачать The Bad Beats - Off the Hook [24bit Hi-Res] (2019) FLAC бесплатно через торрент

  • Поучаствуй (в качестве покупателя) в любых пяти совместных покупках (кроме завершённых и "Моментальных") и получи группу "Новичок" навсегда -> ссылка на раздел
  • Получай до 480 рублей за каждого приглашенного пользователя!
    представляем Вам очередное расширение партнерской программы, подробности описаны тут -> ссылка
  • 90% материалов доступно к скачиванию после простой регистрации!
    Если же ты хочешь скачивать материалы без требования оставлять отзывы то получи группу "Новичок", 10 способов повышения описаны тут -> ссылка
  • К сожалению количество битых ссылок растет и мы уже не можем их оперативно восстанавливать поэтому просим помощи у каждого нашего пользователя.
    С сегодняшнего дня, за каждую восстановленную ссылку мы заплатим Вам.
    Подробнее тут -> ссылка
  • Перенесем твои заслуги с другого ресурса!
    Мы понимаем как сложно прокачивать аккаунты на форумах, вроде раскачал аккаунт, а тут появляется ресурс в 100 раз круче но тоже с системой прокачки и снова качать аккаунт...
    Предлагаем вам перенести Ваши заслуги на другом подобном ресурсе к нам.
    Подробности описаны тут -> ссылка
  • Вы можете получать по 2.5% с каждой покупки и продажи на маркете! Подробности в теме Партнёрская программа

Torrent_Bot

Торрент-Бот
Бот форума
4 Окт 2016
102
153
20



Исполнитель: The Bad Beats
Название: Off the Hook
Жанр: Rock
Год: 2019
Продолжительность: 00:35:09
Битрейт аудио: Lossless
Формат/Кодек: FLAC
Тип рипа: tracks
Разрядность: 24/44.1
Количество каналов: 2.0

01. What You Trying to Say (3:05)
02. Ain't No Friend of Mine (2:29)
03. Don't Mean Nothin (2:48)
04. Too Bad (2:30)
05. The Way It Is (2:48)
06. Inside Looking Out (3:51)
07. Off the Hook (2:43)
08. Friday Night (3:12)
09. Come Back Home (2:18)
10. Gooseback Machine (2:12)
11. Can't Understand (2:49)
12. Waiting Around to Die (4:22)

DR
foobar2000 1.4.4 / Замер динамического диапазона (DR) 1.1.1
Дата отчёта: 2019-06-17 05:54:38

--------------------------------------------------------------------------------
Анализ: The Bad Beats / Off the Hook
--------------------------------------------------------------------------------

DR Пики RMS Продолжительность трека
--------------------------------------------------------------------------------
DR7 -0.16 дБ -8.69 дБ 3:05 01-What You Trying to Say
DR8 -0.01 дБ -8.83 дБ 2:29 02-Ain't No Friend of Mine
DR8 -0.01 дБ -8.65 дБ 2:48 03-Don't Mean Nothin
DR8 -0.01 дБ -9.40 дБ 2:30 04-Too Bad
DR8 -0.01 дБ -9.18 дБ 2:48 05-The Way It Is
DR7 -0.01 дБ -8.56 дБ 3:51 06-Inside Looking Out
DR8 -0.07 дБ -9.86 дБ 2:43 07-Off the Hook
DR8 -0.08 дБ -9.80 дБ 3:12 08-Friday Night
DR9 -0.06 дБ -9.75 дБ 2:18 09-Come Back Home
DR8 -0.07 дБ -9.73 дБ 2:12 10-Gooseback Machine
DR8 -0.06 дБ -9.33 дБ 2:49 11-Can't Understand
DR8 -0.01 дБ -10.07 дБ 4:22 12-Waiting Around to Die
--------------------------------------------------------------------------------

Количество треков: 12
Реальные значения DR: DR8

Частота: 44100 Гц
Каналов: 2
Разрядность: 24
Битрейт: 1505 кбит/с
Кодек: FLAC
================================================================================
 

Вложения

  • 17,1 KB Просмотры: 1
    Личеров 0
    Сидеров 0
    Файлов 13
    Объем 397,8 MB

Привет!

Мы группа людей которые решили помочь другим в решении их проблем, а так же пользователям с поиском самых свежих и качественных инфопродуктов. За 4 с небольшим месяца мы создали этот форум на который заходят ежедневно тысячи человек и посещаемость постоянно растёт. Мы создали панель лицензирования для защиты PHP скриптов от воровства и SEO панель для мониторинга наших сайтов и выбора верной стратегии их развития. Мы надеемся что то что мы создали пригодится Вам и возможно Вы поможете нам развиваться и совершенствоваться вместе с Вами.

Статистика форума

Темы
405.448
Сообщения
462.415
Пользователи
80.460
Новый пользователь
horevo4546

Приложения форума для iOS и Android


У ркн там нет власти ;)
Приватные разговоры
Помощь Пользователи
    Вы не присоединились ни к одной комнате.