За последнюю неделю опубликовано 97 новых материалов.
Инструкция новичку Путеводитель по форуму Прокси для Telegram Показать подсказки , это бомба!

Скачать Тетрадь смерти / Death Note (2006) DVDRip-AVC | D, L1 бесплатно через торрент

  • Поучаствуй (в качестве покупателя) в любых пяти совместных покупках (кроме завершённых и "Моментальных") и получи группу "Новичок" навсегда -> ссылка на раздел
  • Получай до 480 рублей за каждого приглашенного пользователя!
    представляем Вам очередное расширение партнерской программы, подробности описаны тут -> ссылка
  • 90% материалов доступно к скачиванию после простой регистрации!
    Если же ты хочешь скачивать материалы без требования оставлять отзывы то получи группу "Новичок", 10 способов повышения описаны тут -> ссылка
  • К сожалению количество битых ссылок растет и мы уже не можем их оперативно восстанавливать поэтому просим помощи у каждого нашего пользователя.
    С сегодняшнего дня, за каждую восстановленную ссылку мы заплатим Вам.
    Подробнее тут -> ссылка
  • Перенесем твои заслуги с другого ресурса!
    Мы понимаем как сложно прокачивать аккаунты на форумах, вроде раскачал аккаунт, а тут появляется ресурс в 100 раз круче но тоже с системой прокачки и снова качать аккаунт...
    Предлагаем вам перенести Ваши заслуги на другом подобном ресурсе к нам.
    Подробности описаны тут -> ссылка
  • Вы можете получать по 2.5% с каждой покупки и продажи на маркете! Подробности в теме Партнёрская программа

Torrent_Bot

Торрент-Бот
Бот форума
4 Окт 2016
79
194
20
c9c8915760973c480b31537e2fa83079.jpg


Информация о фильме
Название: Тетрадь смерти
Оригинальное название: Death Note
Год выхода: 2006
Жанр: Аниме
Режиссер: Араки Тэцуро

О фильме:
У старшеклассника Лайта Ягами в жизни есть всё: успехи в школе, популярность среди сверстниц, замечательные родители, блестящее будущее. Возможно, поэтому так тяжело ему жить в мире, полном несправедливости, и осознавать, что никакие законы не способны исправить людей – и очистить мир от зла. Но однажды юноша находит странную чёрную тетрадку и знакомится с её владельцем – синигами Рюуком.
Возможности «Тетради смерти» позволяют Лайту стать Кирой – загадочным и всеведущим убийцей, карающим преступников. Более того – изучив правила использования тетради, юноша успешно избегает ловушек, расставленных спецслужбами. Никто не может его поймать.
У таинственного «L» никогда не было поражений: сохраняя инкогнито, он успешно распутывал самые трудные дела и помогал полиции. Появление Киры стало вызовом для его экстраординарных способностей.
Итак, два весьма умных и одарённых молодых человека сталкиваются в смертельном противостоянии, и теперь каждая мелочь, каждая случайность может склонить весы на ту или другую сторону.
На стороне Лайта – могущественная «Тетрадь Смерти».
У «L» есть поддержка полиции и опыт.
И никто не собирается проигрывать или сдаваться…

Страна: Япония
Студия: MAD House
Продолжительность: 37 x ∼23мин = 14:02:28
Перевод:
Аудио 1: Русский; Дубляж от Mega-Anime (2x2)
Аудио 2: Русский; Любительский одноголосый Cuba77, NothinG
Аудио 3: Японский; Оригинальный
Субтитры:
Субтитры 1: Русские, форсированные от Dimpl23
Субтитры 2: Русские, полные от oTpbIBku, StanWarHammer, ShurShur, dark_dr4g0n

Файл
Кодек: x.264
Контейнер: m4v
Качество: DVDRip-AVC
Видео: 720x480 (Анаморф 853x480), ∼2000kbps, 23,976fps
Звук: AAC, 2 channels, 48.0 KHz, 160kbps VBR
Метатэги: Прописаны

Раздача будет особенно полезна пользователям iOS и OS X платформ (из-за родных кодеков и контейнера).
При просмотре на Windows рекомендую пользоваться iTunes или VLC media player.

Скриншоты
362daebadf4e3b27092246929df80e53.jpegf82bf7167ceb16d3623fbe4654a1a277.jpeg336a7e495c71d46fe9e0e019e95b41c4.jpeg79742c33399e425af9c9c842b06b6cf9.jpeg985796d79c7f29df2874d36739eba529.jpeg

Media Info
Death Note/04 Pursuit.m4v
Format : MPEG-4
Codec ID : M4V
File size : 415 MiB
Duration : 22mn 47s
Overall bit rate mode : Variable
Overall bit rate : 2 544 Kbps
Movie name : Pursuit
Track name/Position : 4
Track name/Total : 37
Performer : Death Note
Genre : Animation
Recorded date : 2006-10-25
Encoded date : UTC 2012-08-27 13:31:28
Tagged date : UTC 2012-08-27 13:32:52
Cover : Yes
tvsh : Death Note
tvsn : 1
tves : 4
desc : Light creates a complex plan involving the Death Note and another criminal to try and expose his follower's name and identity.
ldes : Light creates a complex plan involving the Death Note and another criminal to try and expose his follower's name and identity.
stik : 10
rtng : 0

Video
ID : 1
Format : AVC
Format/Info : Advanced Video Codec
Format profile : [email protected]
Format settings, CABAC : Yes
Format settings, ReFrames : 3 frames
Codec ID : avc1
Codec ID/Info : Advanced Video Coding
Duration : 22mn 47s
Bit rate mode : Variable
Bit rate : 2 056 Kbps
Nominal bit rate : 8 709 Kbps
Width : 720 pixels
Height : 480 pixels
Display aspect ratio : 16:9
Original display aspect ratio : 16:9
Frame rate mode : Constant
Frame rate : 23.976 fps
Standard : NTSC
Color space : YUV
Chroma subsampling : 4:2:0
Bit depth : 8 bits
Scan type : Progressive
Bits/(Pixel*Frame) : 0.248
Stream size : 335 MiB (81%)
Writing library : x264 core 60 r880M 2389de2
Encoding settings : cabac=1 / ref=3 / deblock=1:0:0 / analyse=0x3:0x133 / me=hex / subme=5 / rdcmp=psy / brdo=0 / mixed_ref=1 / me_range=16 / chroma_me=1 / trellis=1 / 8x8dct=1 / cqm=0 / deadzone=21,11 / chroma_qp_offset=0 / threads=1 / nr=0 / decimate=1 / mbaff=0 / bframes=3 / b_pyramid=1 / b_adapt=1 / b_bias=0 / direct=1 / wpredb=1 / bime=1 / keyint=250 / keyint_min=25 / scenecut=40 / rc=2pass / bitrate=8709 / ratetol=1.0 / rceq='blurCplx^(1-qComp)' / qcomp=1.00 / qpmin=10 / qpmax=51 / qpstep=4 / cplxblur=20.0 / qblur=0.5 / ip_ratio=1.40 / pb_ratio=1.30 / aq=2:1.00
Language : Japanese
Encoded date : UTC 2012-08-27 13:31:28
Tagged date : UTC 2012-08-27 13:31:55

Audio #1
ID : 2
Format : AAC
Format/Info : Advanced Audio Codec
Format profile : LC
Codec ID : 40
Duration : 22mn 46s
Bit rate mode : Variable
Bit rate : 159 Kbps
Maximum bit rate : 205 Kbps
Channel(s) : 2 channels
Channel positions : Front: L R
Sampling rate : 48.0 KHz
Compression mode : Lossy
Stream size : 25.9 MiB (6%)
Language : Russian
Encoded date : UTC 2012-08-27 13:31:28
Tagged date : UTC 2012-08-27 13:32:09

Audio #2
ID : 3
Format : AAC
Format/Info : Advanced Audio Codec
Format profile : LC
Codec ID : 40
Duration : 22mn 46s
Bit rate mode : Variable
Bit rate : 163 Kbps
Maximum bit rate : 194 Kbps
Channel(s) : 2 channels
Channel positions : Front: L R
Sampling rate : 44.1 KHz
Compression mode : Lossy
Stream size : 26.6 MiB (6%)
Language : Russian
Encoded date : UTC 2012-08-27 13:31:28
Tagged date : UTC 2012-08-27 13:32:20

Audio #3
ID : 4
Format : AAC
Format/Info : Advanced Audio Codec
Format profile : LC
Codec ID : 40
Duration : 22mn 46s
Bit rate mode : Variable
Bit rate : 155 Kbps
Maximum bit rate : 205 Kbps
Channel(s) : 2 channels
Channel positions : Front: L R
Sampling rate : 48.0 KHz
Compression mode : Lossy
Stream size : 25.3 MiB (6%)
Language : Japanese
Encoded date : UTC 2012-08-27 13:31:28
Tagged date : UTC 2012-08-27 13:32:32

Text #1
ID : 5
Format : Timed text
Muxing mode : sbtl
Codec ID : tx3g
Duration : 22mn 46s
Bit rate mode : Variable
Bit rate : 9 bps
Stream size : 1.55 KiB (0%)
Language : Russian
Encoded date : UTC 2012-08-27 13:31:28
Tagged date : UTC 2012-08-27 13:32:51

Text #2
ID : 6
Format : Timed text
Muxing mode : sbtl
Codec ID : tx3g
Duration : 22mn 46s
Bit rate mode : Variable
Bit rate : 159 bps
Stream size : 26.5 KiB (0%)
Language : Russian
Encoded date : UTC 2012-08-27 13:31:28
Tagged date : UTC 2012-08-27 13:32:51
 

Вложения

Привет!

Мы группа людей которые решили помочь другим в решении их проблем, а так же пользователям с поиском самых свежих и качественных инфопродуктов. За 4 с небольшим месяца мы создали этот форум на который заходят ежедневно тысячи человек и посещаемость постоянно растёт. Мы создали панель лицензирования для защиты PHP скриптов от воровства и SEO панель для мониторинга наших сайтов и выбора верной стратегии их развития. Мы надеемся что то что мы создали пригодится Вам и возможно Вы поможете нам развиваться и совершенствоваться вместе с Вами.

Статистика форума

Темы
414.370
Сообщения
475.396
Пользователи
96.561
Новый пользователь
starushka

Приложения форума для iOS и Android


У ркн там нет власти ;)
Приватные разговоры
Помощь Пользователи
    Вы не присоединились ни к одной комнате.