За последнюю неделю опубликовано 154 новых материалов.
Инструкция новичку Путеводитель по форуму Прокси для Telegram Показать подсказки , это бомба!

Скачать Тесто и Принцесса Яйцо / Pandane to Tamago-hime / Mr. Dough and the Egg Princess (2010) CamRip бесплатно через торрент

  • Поучаствуй (в качестве покупателя) в любых пяти совместных покупках (кроме завершённых и "Моментальных") и получи группу "Новичок" навсегда -> ссылка на раздел
  • Получай до 480 рублей за каждого приглашенного пользователя!
    представляем Вам очередное расширение партнерской программы, подробности описаны тут -> ссылка
  • 90% материалов доступно к скачиванию после простой регистрации!
    Если же ты хочешь скачивать материалы без требования оставлять отзывы то получи группу "Новичок", 10 способов повышения описаны тут -> ссылка
  • К сожалению количество битых ссылок растет и мы уже не можем их оперативно восстанавливать поэтому просим помощи у каждого нашего пользователя.
    С сегодняшнего дня, за каждую восстановленную ссылку мы заплатим Вам.
    Подробнее тут -> ссылка
  • Перенесем твои заслуги с другого ресурса!
    Мы понимаем как сложно прокачивать аккаунты на форумах, вроде раскачал аккаунт, а тут появляется ресурс в 100 раз круче но тоже с системой прокачки и снова качать аккаунт...
    Предлагаем вам перенести Ваши заслуги на другом подобном ресурсе к нам.
    Подробности описаны тут -> ссылка
  • Вы можете получать по 2.5% с каждой покупки и продажи на маркете! Подробности в теме Партнёрская программа

Torrent_Bot

Торрент-Бот
Бот форума
4 Окт 2016
124
98
20
Информация о фильме

Название : Тесто и Принцесса Яйцо
Оригинальное название : Pandane to Tamago-hime / Mr. Dough and the Egg Princess
Год выхода : 2010
Жанр :аниме, короткометражка, фэнтези
Режиссер : Хаяо Миядзаки

548ad3dea7aacb6becf36a8a1ecbee62.gif7575f32bcbe830bf5e9a49dc5185bbe6.gif


Описание : Принцесса Яйцо, которая будучи в слугах у ведьмы Бабы Яги, подружилась с ожившим от заклинания волшебницы Тестом. Вместе они решают бежать.

Доп. информация : Короткометражка, созданная для демонстрации в музее студии Гибли. Качество: CamRip (снималось на мобильный телефон) В ближайшие несколько лет другого качества нет и не будет! Студия Гибли принципиально не выпускает свои короткометражки ни в каких форматах. Да, в начале этого ролика идут трейлеры остальных короткометражек Гибли.


Страна : Япония
Производство : Studio Ghibli
Продолжительность : 00:14:55
Перевод : Не требуется


Файл
Формат видео : mp4
Качество : CamRip

Видео : AVC, 640x480 (4:3), 25.000 fps, ~600 Kbps
Звук : AAC, 44.1 KHz, 2 ch, ~128 Kbps
Субтитры : нет


ec786c3b5ca767a5251f6c7830fe2b48.png

Скриншоты
641686672c8a70e30f1e6e75bcfa6a57.jpege31735b993627c351137ca8ba66ba18d.jpeg4befe23dccb20444f1531585913a6d30.jpeg
MediaInfo
General
Complete name : E:/Pandane to Tamago-hime.mp4
Format : MPEG-4
Format profile : Base Media
Codec ID : isom
File size : 79.0 MiB
Duration : 14mn 55s
Overall bit rate : 740 Kbps
Writing application : Lavf52.40.0

Video #1
ID : 1
Format : AVC
Format/Info : Advanced Video Codec
Format profile : High@L3.0
Format settings, CABAC : Yes
Format settings, ReFrames : 3 frames
Codec ID : avc1
Codec ID/Info : Advanced Video Coding
Duration : 14mn 55s
Bit rate mode : Variable
Bit rate : 600 Kbps
Width : 640 pixels
Height : 480 pixels
Display aspect ratio : 4:3
Frame rate mode : Constant
Frame rate : 25.000 fps
Color space : YUV
Chroma subsampling : 4:2:0
Bit depth : 8 bits
Scan type : Progressive
Bits/(Pixel*Frame) : 0.078
Stream size : 64.8 MiB (82%)
Writing library : x264 core 79
Encoding settings : cabac=1 / ref=3 / deblock=1:0:0 / analyse=0x3:0x113 / me=hex / subme=7 / psy=1 / psy_rd=1.0:0.0 / mixed_ref=1 / me_range=16 / chroma_me=1 / trellis=1 / 8x8dct=1 / cqm=0 / deadzone=21,11 / chroma_qp_offset=-2 / threads=24 / nr=0 / decimate=1 / mbaff=0 / constrained_intra=0 / bframes=3 / b_pyramid=0 / b_adapt=1 / b_bias=0 / direct=1 / wpredb=32 / wpredp=2 / keyint=250 / keyint_min=25 / scenecut=40 / rc_lookahead=40 / rc=abr / mbtree=1 / bitrate=600 / ratetol=6.7 / qcomp=0.60 / qpmin=10 / qpmax=51 / qpstep=4 / ip_ratio=1.41 / aq=1:1.00

Audio #2
ID : 2
Format : AAC
Format/Info : Advanced Audio Codec
Format profile : LC
Codec ID : 40
Duration : 14mn 55s
Bit rate mode : Variable
Bit rate : 128 Kbps
Channel(s) : 2 channels
Channel positions : Front: L R
Sampling rate : 44.1 KHz
Compression mode : Lossy
Stream size : 13.7 MiB (17%)
 

Вложения

Ваш e-mail не будет опубликован. Он потребуется для подтверждения Вашего поста.
Оформление текста Нажмите «Ввод», чтобы отправить ответ.

Привет!

Мы группа людей которые решили помочь другим в решении их проблем, а так же пользователям с поиском самых свежих и качественных инфопродуктов. За 4 с небольшим месяца мы создали этот форум на который заходят ежедневно тысячи человек и посещаемость постоянно растёт. Мы создали панель лицензирования для защиты PHP скриптов от воровства и SEO панель для мониторинга наших сайтов и выбора верной стратегии их развития. Мы надеемся что то что мы создали пригодится Вам и возможно Вы поможете нам развиваться и совершенствоваться вместе с Вами.

Статистика форума

Темы
380.754
Сообщения
420.499
Пользователи
51.049
Новый пользователь
u3z5

Приложения форума для iOS и Android


У ркн там нет власти ;)
Приватные разговоры
Помощь Пользователи
    Вы не присоединились ни к одной комнате.