За последнюю неделю опубликовано 190 новых материалов.
Инструкция новичку Путеводитель по форуму Прокси для Telegram Показать подсказки , это бомба!

Скачать Терминатор: Темные судьбы / Terminator: Dark Fate (2019) BDRip 720p от k.e.n & MegaPeer | A бесплатно через торрент

  • Поучаствуй (в качестве покупателя) в любых пяти совместных покупках (кроме завершённых и "Моментальных") и получи группу "Новичок" навсегда -> ссылка на раздел
  • Получай до 480 рублей за каждого приглашенного пользователя!
    представляем Вам очередное расширение партнерской программы, подробности описаны тут -> ссылка
  • 90% материалов доступно к скачиванию после простой регистрации!
    Если же ты хочешь скачивать материалы без требования оставлять отзывы то получи группу "Новичок", 10 способов повышения описаны тут -> ссылка
  • К сожалению количество битых ссылок растет и мы уже не можем их оперативно восстанавливать поэтому просим помощи у каждого нашего пользователя.
    С сегодняшнего дня, за каждую восстановленную ссылку мы заплатим Вам.
    Подробнее тут -> ссылка
  • Перенесем твои заслуги с другого ресурса!
    Мы понимаем как сложно прокачивать аккаунты на форумах, вроде раскачал аккаунт, а тут появляется ресурс в 100 раз круче но тоже с системой прокачки и снова качать аккаунт...
    Предлагаем вам перенести Ваши заслуги на другом подобном ресурсе к нам.
    Подробности описаны тут -> ссылка
  • Вы можете получать по 2.5% с каждой покупки и продажи на маркете! Подробности в теме Партнёрская программа
Если Вы не хотите скачивать, Вы всегда можетепосмотретьонлайн, просто нажмите кнопку ниже :

Открыть плеер

Torrent_Bot

Торрент-Бот
Бот форума
4 Окт 2016
124
94
20


Информация о фильме
Название: Терминатор: Тёмные судьбы
Оригинальное название: Terminator: Dark Fate
Год выпуска: 2019
Жанр: Фантастика, боевик, приключения
Режиссер: Тим Миллер
В ролях: Арнольд Шварценеггер, Маккензи Дэвис, Линда Хэмилтон, Эдвард Ферлонг, Гэбриел Луна, Наталия Рейес, Том Хоппер, Диего Бонета, Алисия Боррачеро, Энрике Арсе, Стивен Кри, Ферран Фернандес

О фильме:
Мексика. Милая девушка Даниэла Рамос, а для друзей просто Дани, вместе с братом приходит с утра работать на завод, но там выясняется, что их вскоре заменят автоматикой. И это не единственная угроза, которую представляют для девушки машины: тут же на неё нападает присланная из будущего и практически неубиваемая модель терминатора REV-9. Но на защиту Дани встает Грэйс — тоже прибывшая из будущего женщина, модифицировавшая свои боевые характеристики до терминаторского уровня. Вскоре к ним на помощь придёт и Сара Коннор, которая теперь превратилась в настоящую охотницу на роботов-убийц.



Страна: США, Китай
Студия: Paramount Pictures, Twentieth Century Fox, Skydance Media
Продолжительность: 02:08:05
Перевод: Авторский (одноголосый закадровый) Д.Есарев

Файл
Формат: MKV
Качество: BDRip 720p
Видео: AVC, 1280x536 (2.40:1), 23.976 fps, 5 538 kbps (0.337 bit/pixel)
Аудио #1: AC3, 48 kHz, 6 ch, 448 kbps - Русский, AVO Д.Есарев
Аудио #2: AC3, 48 kHz, 6 ch, 448 kbps - Английский, Original
Субтитры: English

ЦитатаКто-то писал:
За перевод Д.Есарева спасибо пользователям переулка переводмана: igrok2012, Литти, saint-sinner, kidman644, podorov92], garik123, Pr0peLLer, nikolas, van156, stimco, ZeDOK, AleXXX, CATFISH-2, Avatar-Lion, Loki1982, zhora867 работа со звуком - Переводман

Релиз от: &

x264 log & MediaInfo:
x264 [info]: frame I:1199 Avg QP:14.67 size:104852
x264 [info]: frame P:42676 Avg QP:16.81 size: 50230
x264 [info]: frame B:140389 Avg QP:17.90 size: 21727

Format : Matroska
Format version : Version 2
File size : 5.76 GiB
Duration : 2 h 8 min
Overall bit rate : 6 436 kb/s
Encoded date : UTC 2020-01-21 03:13:38
Writing application : mkvmerge v5.3.0 ('I could have danced') built on Feb 9 2012 10:38:07
Writing library : libebml v1.2.3 + libmatroska v1.3.0
Cover : Yes
Attachments : cover.jpg

Video
ID : 1
Format : AVC
Format/Info : Advanced Video Codec
Format profile : High@L4.1
Format settings : CABAC / 12 Ref Frames
Format settings, CABAC : Yes
Format settings, ReFrames : 12 frames
Codec ID : V_MPEG4/ISO/AVC
Duration : 2 h 8 min
Bit rate : 5 538 kb/s
Width : 1 280 pixels
Height : 536 pixels
Display aspect ratio : 2.40:1
Frame rate mode : Constant
Frame rate : 23.976 (24000/1001) FPS
Color space : YUV
Chroma subsampling : 4:2:0
Bit depth : 8 bits
Scan type : Progressive
Bits/(Pixel*Frame) : 0.337
Stream size : 4.84 GiB (84%)
Writing library : x264 core 158 r2984 3759fcb
Encoding settings : cabac=1 / ref=12 / deblock=1:-3:-3 / analyse=0x3:0x133 / me=umh / subme=11 / psy=1 / psy_rd=1.00:0.00 / mixed_ref=1 / me_range=32 / chroma_me=1 / trellis=2 / 8x8dct=1 / cqm=0 / deadzone=21,11 / fast_pskip=0 / chroma_qp_offset=-2 / threads=12 / lookahead_threads=3 / sliced_threads=0 / nr=0 / decimate=0 / interlaced=0 / bluray_compat=0 / constrained_intra=0 / bframes=14 / b_pyramid=2 / b_adapt=2 / b_bias=0 / direct=3 / weightb=1 / open_gop=0 / weightp=2 / keyint=240 / keyint_min=23 / scenecut=40 / intra_refresh=0 / rc_lookahead=60 / rc=2pass / mbtree=0 / bitrate=5538 / ratetol=1.0 / qcomp=0.70 / qpmin=0 / qpmax=69 / qpstep=4 / cplxblur=20.0 / qblur=0.5 / vbv_maxrate=50000 / vbv_bufsize=62500 / nal_hrd=none / filler=0 / ip_ratio=1.30 / pb_ratio=1.20 / aq=3:0.80
Language : English
Default : Yes
Forced : No
Color range : Limited
Color primaries : BT.709
Transfer characteristics : BT.709
Matrix coefficients : BT.709

Audio #1
ID : 2
Format : AC-3
Format/Info : Audio Coding 3
Commercial name : Dolby Digital
Codec ID : A_AC3
Duration : 2 h 8 min
Bit rate mode : Constant
Bit rate : 448 kb/s
Channel(s) : 6 channels
Channel layout : L R C LFE Ls Rs
Sampling rate : 48.0 kHz
Frame rate : 31.250 FPS (1536 SPF)
Bit depth : 16 bits
Compression mode : Lossy
Stream size : 410 MiB (7%)
Title : AVO Д.Есарев
Language : Russian
Service kind : Complete Main
Default : No
Forced : No

Audio #2
ID : 3
Format : AC-3
Format/Info : Audio Coding 3
Commercial name : Dolby Digital
Codec ID : A_AC3
Duration : 2 h 8 min
Bit rate mode : Constant
Bit rate : 448 kb/s
Channel(s) : 6 channels
Channel layout : L R C LFE Ls Rs
Sampling rate : 48.0 kHz
Frame rate : 31.250 FPS (1536 SPF)
Bit depth : 16 bits
Compression mode : Lossy
Stream size : 410 MiB (7%)
Title : Original
Language : English
Service kind : Complete Main
Default : No
Forced : No

Text #1
ID : 4
Format : UTF-8
Codec ID : S_TEXT/UTF8
Codec ID/Info : UTF-8 Plain Text
Title : full
Default : Yes
Forced : No

Text #2
ID : 5
Format : UTF-8
Codec ID : S_TEXT/UTF8
Codec ID/Info : UTF-8 Plain Text
Title : SDH
Language : English
Default : No
Forced : No

Menu
00:00:00.000 : :Chapter 01
00:04:19.843 : :Chapter 02
00:07:48.927 : :Chapter 03
00:11:47.916 : :Chapter 04
00:16:56.349 : :Chapter 05
00:22:10.663 : :Chapter 06
00:29:00.614 : :Chapter 07
00:33:25.754 : :Chapter 08
00:41:35.493 : :Chapter 09
00:47:02.695 : :Chapter 10
00:53:08.936 : :Chapter 11
00:57:56.807 : :Chapter 12
01:05:02.690 : :Chapter 13
01:13:07.967 : :Chapter 14
01:20:45.591 : :Chapter 15
01:27:29.744 : :Chapter 16
01:32:48.688 : :Chapter 17
01:41:45.850 : :Chapter 18
01:49:35.319 : :Chapter 19
01:57:58.613 : :Chapter 20
Скриншоты




 

Вложения

  • 15,4 KB Просмотры: 0
    Личеров 0
    Сидеров 0
    Файлов 1
    Объем 5,8 GB
Ваш e-mail не будет опубликован. Он потребуется для подтверждения Вашего поста.
Оформление текста Нажмите «Ввод», чтобы отправить ответ.

Привет!

Мы группа людей которые решили помочь другим в решении их проблем, а так же пользователям с поиском самых свежих и качественных инфопродуктов. За 4 с небольшим месяца мы создали этот форум на который заходят ежедневно тысячи человек и посещаемость постоянно растёт. Мы создали панель лицензирования для защиты PHP скриптов от воровства и SEO панель для мониторинга наших сайтов и выбора верной стратегии их развития. Мы надеемся что то что мы создали пригодится Вам и возможно Вы поможете нам развиваться и совершенствоваться вместе с Вами.

Статистика форума

Темы
378.713
Сообщения
417.915
Пользователи
49.446
Новый пользователь
BEGEMOTTTTTT

Приложения форума для iOS и Android


У ркн там нет власти ;)
Приватные разговоры
Помощь Пользователи
    Вы не присоединились ни к одной комнате.