За последнюю неделю опубликовано 15 новых материалов.
Инструкция новичку Путеводитель по форуму Прокси для Telegram Показать подсказки , это бомба!

Скачать Терминатор: Темные судьбы / Terminator: Dark Fate (2019) BDRip 720p | A, L2 бесплатно через торрент

  • Поучаствуй (в качестве покупателя) в любых пяти совместных покупках (кроме завершённых и "Моментальных") и получи группу "Новичок" навсегда -> ссылка на раздел
  • Получай до 480 рублей за каждого приглашенного пользователя!
    представляем Вам очередное расширение партнерской программы, подробности описаны тут -> ссылка
  • 90% материалов доступно к скачиванию после простой регистрации!
    Если же ты хочешь скачивать материалы без требования оставлять отзывы то получи группу "Новичок", 10 способов повышения описаны тут -> ссылка
  • К сожалению количество битых ссылок растет и мы уже не можем их оперативно восстанавливать поэтому просим помощи у каждого нашего пользователя.
    С сегодняшнего дня, за каждую восстановленную ссылку мы заплатим Вам.
    Подробнее тут -> ссылка
  • Перенесем твои заслуги с другого ресурса!
    Мы понимаем как сложно прокачивать аккаунты на форумах, вроде раскачал аккаунт, а тут появляется ресурс в 100 раз круче но тоже с системой прокачки и снова качать аккаунт...
    Предлагаем вам перенести Ваши заслуги на другом подобном ресурсе к нам.
    Подробности описаны тут -> ссылка
  • Вы можете получать по 2.5% с каждой покупки и продажи на маркете! Подробности в теме Партнёрская программа
Если Вы не хотите скачивать, Вы всегда можетепосмотретьонлайн, просто нажмите кнопку ниже :

Открыть плеер

Torrent_Bot

Торрент-Бот
Бот форума
4 Окт 2016
122
116
20



Информация о фильме
Название: Терминатор: Тёмные судьбы
Оригинальное название: Terminator: Dark Fate
Год выпуска: 2019
Жанр: Фантастика, боевик, приключения
Режиссер: Тим Миллер
В ролях: Арнольд Шварценеггер, Маккензи Дэвис, Линда Хэмилтон, Эдвард Ферлонг, Гэбриел Луна, Наталия Рейес, Том Хоппер, Диего Бонета, Алисия Боррачеро, Энрике Арсе, Стивен Кри, Ферран Фернандес

О фильме:
Мексика. Милая девушка Даниэла Рамос, а для друзей просто Дани, вместе с братом приходит с утра работать на завод, но там выясняется, что их вскоре заменят автоматикой. И это не единственная угроза, которую представляют для девушки машины: тут же на неё нападает присланная из будущего и практически неубиваемая модель терминатора REV-9. Но на защиту Дани встает Грэйс — тоже прибывшая из будущего женщина, модифицировавшая свои боевые характеристики до терминаторского уровня. Вскоре к ним на помощь придёт и Сара Коннор, которая теперь превратилась в настоящую охотницу на роботов-убийц.



Страна: США, Китай
Студия: Paramount Pictures, Twentieth Century Fox, Skydance Media
Продолжительность: 02:08:05
Перевод: Авторский (одноголосый закадровый) Д.Есарев, любительский (двухголосый закадровый) LakeFilms

Файл
Формат: MKV
Качество: BDRip 720p
Видео: H.264, 1280x536 (2.39:1), 5308 kbps, 23.976 fps
Аудио №1: Russian, AC3, 6ch, 48 kHz, 640 kbps (Авторский, Есарев)
Аудио №2: Russian, AC3, 2ch, 48 kHz, 256 kbps (Двухголосый, LakeFilms)
Аудио №3: English, AC3, 6ch, 48 kHz, 640 kbps (Оригинал)
Субтитры: English (SRT, SDH)

Mediainfo
Format : Matroska
Format version : Version 4
File size : 6.13 GiB
Duration : 2 h 8 min
Overall bit rate : 6 846 kb/s
Movie name : Terminator: Dark Fate (2019) BDRip 720p
Encoded date : UTC 2020-01-19 17:40:23
Writing application : mkvmerge v42.0.0 ('Overtime') 64-bit
Writing library : libebml v1.3.10 + libmatroska v1.5.2
Cover : Yes
Attachments : Cover.png

Video
ID : 1
Format : AVC
Format/Info : Advanced Video Codec
Format profile : [email protected]
Format settings : CABAC / 11 Ref Frames
Format settings, CABAC : Yes
Format settings, ReFrames : 11 frames
Codec ID : V_MPEG4/ISO/AVC
Duration : 2 h 8 min
Bit rate : 5 308 kb/s
Width : 1 280 pixels
Height : 536 pixels
Display aspect ratio : 2.40:1
Frame rate mode : Constant
Frame rate : 23.976 (24000/1001) FPS
Color space : YUV
Chroma subsampling : 4:2:0
Bit depth : 8 bits
Scan type : Progressive
Bits/(Pixel*Frame) : 0.323
Stream size : 4.75 GiB (78%)
Writing library : x264 core 158 r2988 7817004
Encoding settings : cabac=1 / ref=11 / deblock=1:-3:-3 / analyse=0x3:0x133 / me=umh / subme=11 / psy=1 / psy_rd=1.00:0.03 / mixed_ref=1 / me_range=32 / chroma_me=1 / trellis=2 / 8x8dct=1 / cqm=0 / deadzone=21,11 / fast_pskip=0 / chroma_qp_offset=-3 / threads=17 / lookahead_threads=4 / sliced_threads=0 / nr=0 / decimate=1 / interlaced=0 / bluray_compat=0 / constrained_intra=0 / bframes=16 / b_pyramid=2 / b_adapt=2 / b_bias=0 / direct=1 / weightb=1 / open_gop=0 / weightp=2 / keyint=250 / keyint_min=23 / scenecut=40 / intra_refresh=0 / rc_lookahead=40 / rc=crf / mbtree=0 / crf=15.0 / qcomp=0.65 / qpmin=0 / qpmax=69 / qpstep=4 / vbv_maxrate=62500 / vbv_bufsize=78125 / crf_max=0.0 / nal_hrd=none / filler=0 / ip_ratio=1.35 / pb_ratio=1.25 / aq=3:0.70
Language : English
Default : Yes
Forced : No
Color range : Limited
Matrix coefficients : BT.709

Audio #1
ID : 2
Format : AC-3
Format/Info : Audio Coding 3
Commercial name : Dolby Digital
Codec ID : A_AC3
Duration : 2 h 8 min
Bit rate mode : Constant
Bit rate : 640 kb/s
Channel(s) : 6 channels
Channel layout : L R C LFE Ls Rs
Sampling rate : 48.0 kHz
Frame rate : 31.250 FPS (1536 SPF)
Bit depth : 16 bits
Compression mode : Lossy
Stream size : 586 MiB (9%)
Title : VO, Esarev
Language : Russian
Service kind : Complete Main
Default : Yes
Forced : No

Audio #2
ID : 3
Format : AC-3
Format/Info : Audio Coding 3
Commercial name : Dolby Digital
Codec ID : A_AC3
Duration : 2 h 8 min
Bit rate mode : Constant
Bit rate : 256 kb/s
Channel(s) : 2 channels
Channel layout : L R
Sampling rate : 48.0 kHz
Frame rate : 31.250 FPS (1536 SPF)
Bit depth : 16 bits
Compression mode : Lossy
Stream size : 235 MiB (4%)
Title : DVO, LakeFilms
Language : Russian
Service kind : Complete Main
Default : No
Forced : No

Audio #3
ID : 4
Format : AC-3
Format/Info : Audio Coding 3
Commercial name : Dolby Digital
Codec ID : A_AC3
Duration : 2 h 8 min
Bit rate mode : Constant
Bit rate : 640 kb/s
Channel(s) : 6 channels
Channel layout : L R C LFE Ls Rs
Sampling rate : 48.0 kHz
Frame rate : 31.250 FPS (1536 SPF)
Bit depth : 16 bits
Compression mode : Lossy
Stream size : 586 MiB (9%)
Title : Original
Language : English
Service kind : Complete Main
Default : No
Forced : No

Text
ID : 5
Format : UTF-8
Codec ID : S_TEXT/UTF8
Codec ID/Info : UTF-8 Plain Text
Duration : 1 h 57 min
Bit rate : 39 b/s
Count of elements : 1388
Stream size : 34.5 KiB (0%)
Title : SDH
Language : English
Default : No
Forced : No

Menu
00:00:00.000 : en:Chapter 01
00:04:19.843 : en:Chapter 02
00:07:48.927 : en:Chapter 03
00:11:47.916 : en:Chapter 04
00:16:56.349 : en:Chapter 05
00:22:10.663 : en:Chapter 06
00:29:00.614 : en:Chapter 07
00:33:25.754 : en:Chapter 08
00:41:35.493 : en:Chapter 09
00:47:02.695 : en:Chapter 10
00:53:08.936 : en:Chapter 11
00:57:56.807 : en:Chapter 12
01:05:02.690 : en:Chapter 13
01:13:07.967 : en:Chapter 14
01:20:45.591 : en:Chapter 15
01:27:29.744 : en:Chapter 16
01:32:48.688 : en:Chapter 17
01:41:45.850 : en:Chapter 18
01:49:35.319 : en:Chapter 19
01:57:58.613 : en:Chapter 20
x264 log
x264 [info]: frame I:1207 Avg QP:10.58 size:100366
x264 [info]: frame P:46013 Avg QP:12.19 size: 47407
x264 [info]: frame B:137044 Avg QP:13.98 size: 20405
x264 [info]: consecutive B-frames: 3.7% 6.1% 10.7% 20.8% 19.4% 32.6% 3.9% 0.8% 0.5% 0.3% 0.2% 0.3% 0.2% 0.1% 0.1% 0.1% 0.3%
x264 [info]: mb I I16..4: 12.9% 65.9% 21.2%
x264 [info]: mb P I16..4: 3.2% 27.9% 4.2% P16..4: 20.2% 25.4% 10.2% 2.5% 0.2% skip: 6.0%
x264 [info]: mb B I16..4: 1.1% 4.8% 0.7% B16..8: 30.5% 26.8% 6.0% direct: 9.7% skip:20.4% L0:45.8% L1:39.7% BI:14.5%
x264 [info]: 8x8 transform intra:76.2% inter:47.1%
x264 [info]: coded y,uvDC,uvAC intra: 79.5% 85.4% 78.2% inter: 35.2% 32.3% 13.9%
x264 [info]: i16 v,h,dc,p: 52% 12% 6% 30%
x264 [info]: i8 v,h,dc,ddl,ddr,vr,hd,vl,hu: 12% 11% 16% 8% 10% 10% 10% 11% 12%
x264 [info]: i4 v,h,dc,ddl,ddr,vr,hd,vl,hu: 14% 11% 21% 7% 11% 10% 9% 8% 10%
x264 [info]: i8c dc,h,v,p: 50% 24% 16% 11%
x264 [info]: Weighted P-Frames: Y:5.8% UV:4.1%
x264 [info]: ref P L0: 46.1% 7.1% 17.2% 7.8% 6.1% 4.5% 4.0% 2.3% 1.8% 1.5% 1.5% 0.2% 0.0%
x264 [info]: ref B L0: 72.1% 11.6% 5.9% 3.1% 2.3% 1.9% 1.5% 0.9% 0.5% 0.2%
x264 [info]: ref B L1: 95.1% 4.9%
x264 [info]: kb/s:5307.55

encoded 184264 frames, 10.01 fps, 5307.55 kb/s
Скриншоты

 

Вложения

  • 16,2 KB Просмотры: 0
    Личеров 0
    Сидеров 0
    Файлов 1
    Объем 6,1 GB

Привет!

Мы группа людей которые решили помочь другим в решении их проблем, а так же пользователям с поиском самых свежих и качественных инфопродуктов. За 4 с небольшим месяца мы создали этот форум на который заходят ежедневно тысячи человек и посещаемость постоянно растёт. Мы создали панель лицензирования для защиты PHP скриптов от воровства и SEO панель для мониторинга наших сайтов и выбора верной стратегии их развития. Мы надеемся что то что мы создали пригодится Вам и возможно Вы поможете нам развиваться и совершенствоваться вместе с Вами.

Статистика форума

Темы
385.073
Сообщения
430.569
Пользователи
63.380
Новый пользователь
Periperi

Приложения форума для iOS и Android


У ркн там нет власти ;)
Приватные разговоры
Помощь Пользователи
    Вы не присоединились ни к одной комнате.