За последнюю неделю опубликовано 63 новых материалов.
Инструкция новичку Путеводитель по форуму Прокси для Telegram Показать подсказки , это бомба!

Скачать Телефон дьявола / 976-EVIL (1988) BDRip 720p | A бесплатно через торрент

  • Поучаствуй (в качестве покупателя) в любых пяти совместных покупках (кроме завершённых и "Моментальных") и получи группу "Новичок" навсегда -> ссылка на раздел
  • Получай до 480 рублей за каждого приглашенного пользователя!
    представляем Вам очередное расширение партнерской программы, подробности описаны тут -> ссылка
  • 90% материалов доступно к скачиванию после простой регистрации!
    Если же ты хочешь скачивать материалы без требования оставлять отзывы то получи группу "Новичок", 10 способов повышения описаны тут -> ссылка
  • К сожалению количество битых ссылок растет и мы уже не можем их оперативно восстанавливать поэтому просим помощи у каждого нашего пользователя.
    С сегодняшнего дня, за каждую восстановленную ссылку мы заплатим Вам.
    Подробнее тут -> ссылка
  • Перенесем твои заслуги с другого ресурса!
    Мы понимаем как сложно прокачивать аккаунты на форумах, вроде раскачал аккаунт, а тут появляется ресурс в 100 раз круче но тоже с системой прокачки и снова качать аккаунт...
    Предлагаем вам перенести Ваши заслуги на другом подобном ресурсе к нам.
    Подробности описаны тут -> ссылка
  • Вы можете получать по 2.5% с каждой покупки и продажи на маркете! Подробности в теме Партнёрская программа
Если Вы не хотите скачивать, Вы всегда можетепосмотретьонлайн, просто нажмите кнопку ниже :

Открыть плеер

Torrent_Bot

Торрент-Бот
Бот форума
4 Окт 2016
92
160
20



Информация о фильме
Название: Телефон дьявола
Оригинальное название: 976-EVIL
Год выхода: 1988
Жанр: комедия, ужасыы
Режиссер: Роберт Инглунд
В ролях: Стивен Джеффрис, Патрик О’Брайан, Сэнди Дэннис, Джим Метцлер, Мария Рубелл, Лесли Дин, Дж.Дж. Коэн, Пол Вилсон, Грег Коллинз, Даррен Э. Берроуз

О фильме:
Юный Хоакс – обычный подросток с кучей проблем, которого смело можно назвать полным неудачником. Но все меняется, когда ему на глаза попадается реклама с предложением позвонить по телефону 976-ЗЛО и получить некие необычные услуги.

Герой набирает номер не подозревая, что обращается за помощью прямехонько в преисподнюю! И там готовы поставить на службу Хоаксу все силы ада… Но услуги платные. И вы знаете какова цена. А вот герой, похоже, забыл, чем расплачиваются те, кто водится с нечистой силой…



Страна: США
Продолжительность: 01:32:22
Перевод: авторский (одноголосый закадровый) Сергей Визгунов + оригинал

Файл
Качество: BDRip 720p
Видео: MPEG-4 AVC, 8000 Kbps, 1280x694
Аудио 1: Russian; AC3; 48.0 KHz; 2ch; 192 Kbps | Сергей Визгунов
Аудио 2: English; AC3; 48.0 KHz; 6ch; 448 Kbps | Original
Аудио 3: English; AC3; 48.0 KHz; 2ch; 192 Kbps | Commentary with Director Robert Englund and Set Decorator Nancy Booth Englund

Скриншоты
MediaInfo
General
Unique ID : 288099846026672218996227427023190853891 (0xD8BE03154A47AEB287772216B6ED8903)
Complete name : G:nrips976-Evil.1988.BDRip.720p.mkv
Format : Matroska
Format version : Version 4 / Version 2
File size : 5.72 GiB
Duration : 1 h 32 min
Overall bit rate : 8 865 kb/s
Encoded date : UTC 2018-08-27 11:56:18
Writing application : mkvmerge v25.0.0 ('Prog Noir') 64-bit
Writing library : libebml v1.3.6 + libmatroska v1.4.9

Video
ID : 1
Format : AVC
Format/Info : Advanced Video Codec
Format profile : [email protected]
Format settings : CABAC / 9 Ref Frames
Format settings, CABAC : Yes
Format settings, ReFrames : 9 frames
Codec ID : V_MPEG4/ISO/AVC
Duration : 1 h 32 min
Bit rate : 8 000 kb/s
Width : 1 280 pixels
Height : 694 pixels
Display aspect ratio : 1.85:1
Frame rate mode : Constant
Frame rate : 23.976 (24000/1001) FPS
Color space : YUV
Chroma subsampling : 4:2:0
Bit depth : 8 bits
Scan type : Progressive
Bits/(Pixel*Frame) : 0.376
Stream size : 5.16 GiB (90%)
Title : 976-Evil.1988.BDRip.720p.x264-MM
Writing library : x264 core 146 r2538 121396c
Encoding settings : cabac=1 / ref=9 / deblock=1:-3:-3 / analyse=0x3:0x113 / me=umh / subme=11 / psy=1 / psy_rd=1.00:0.00 / mixed_ref=1 / me_range=48 / chroma_me=1 / trellis=2 / 8x8dct=1 / cqm=0 / deadzone=21,11 / fast_pskip=0 / chroma_qp_offset=-2 / threads=12 / lookahead_threads=3 / sliced_threads=0 / nr=0 / decimate=0 / interlaced=0 / bluray_compat=0 / constrained_intra=0 / bframes=12 / b_pyramid=2 / b_adapt=2 / b_bias=0 / direct=3 / weightb=1 / open_gop=1 / weightp=2 / keyint=250 / keyint_min=23 / scenecut=40 / intra_refresh=0 / rc_lookahead=60 / rc=2pass / mbtree=0 / bitrate=8000 / ratetol=1.0 / qcomp=0.60 / qpmin=0 / qpmax=69 / qpstep=4 / cplxblur=20.0 / qblur=0.5 / vbv_maxrate=50000 / vbv_bufsize=62500 / nal_hrd=none / filler=0 / ip_ratio=1.40 / pb_ratio=1.30 / aq=1:1.10
Language : English
Default : Yes
Forced : No

Audio #1
ID : 2
Format : AC-3
Format/Info : Audio Coding 3
Codec ID : A_AC3
Duration : 1 h 32 min
Bit rate mode : Constant
Bit rate : 192 kb/s
Channel(s) : 2 channels
Channel positions : Front: L R
Sampling rate : 48.0 kHz
Frame rate : 31.250 FPS (1536 SPF)
Bit depth : 16 bits
Compression mode : Lossy
Stream size : 127 MiB (2%)
Title : AVO Визгунов
Language : Russian
Service kind : Complete Main
Default : Yes
Forced : No

Audio #2
ID : 3
Format : AC-3
Format/Info : Audio Coding 3
Codec ID : A_AC3
Duration : 1 h 32 min
Bit rate mode : Constant
Bit rate : 448 kb/s
Channel(s) : 6 channels
Channel positions : Front: L C R, Side: L R, LFE
Sampling rate : 48.0 kHz
Frame rate : 31.250 FPS (1536 SPF)
Bit depth : 16 bits
Compression mode : Lossy
Stream size : 296 MiB (5%)
Title : Original
Language : English
Service kind : Complete Main
Default : No
Forced : No

Audio #3
ID : 4
Format : AC-3
Format/Info : Audio Coding 3
Codec ID : A_AC3
Duration : 1 h 32 min
Bit rate mode : Constant
Bit rate : 192 kb/s
Channel(s) : 2 channels
Channel positions : Front: L R
Sampling rate : 48.0 kHz
Frame rate : 31.250 FPS (1536 SPF)
Bit depth : 16 bits
Compression mode : Lossy
Delay relative to video : 32 ms
Stream size : 127 MiB (2%)
Title : Commentary with Director Robert Englund and Set Decorator Nancy Booth Englund
Language : English
Service kind : Complete Main
Default : No
Forced : No

Text #1
ID : 5
Format : PGS
Muxing mode : zlib
Codec ID : S_HDMV/PGS
Codec ID/Info : Picture based subtitle format used on BDs/HD-DVDs
Duration : 1 h 32 min
Bit rate : 25.0 kb/s
Count of elements : 1981
Stream size : 16.4 MiB (0%)
Language : English
Default : Yes
Forced : No

Text #2
ID : 6
Format : PGS
Muxing mode : zlib
Codec ID : S_HDMV/PGS
Codec ID/Info : Picture based subtitle format used on BDs/HD-DVDs
Duration : 1 h 30 min
Bit rate : 50.8 kb/s
Count of elements : 3053
Stream size : 33.0 MiB (1%)
Title : SDH
Language : English
Default : No
Forced : No

Menu
00:00:00.000 : en:Chapter 1
00:06:02.236 : en:Chapter 2
00:12:14.859 : en:Chapter 3
00:18:09.755 : en:Chapter 4
00:22:59.920 : en:Chapter 5
00:26:24.457 : en:Chapter 6
00:32:32.116 : en:Chapter 7
00:40:08.364 : en:Chapter 8
00:45:58.130 : en:Chapter 9
00:51:46.436 : en:Chapter 10
00:59:16.719 : en:Chapter 11
01:04:26.904 : en:Chapter 12
01:10:06.869 : en:Chapter 13
01:14:25.836 : en:Chapter 14
01:20:26.279 : en:Chapter 15
01:26:03.116 : en:Chapter 16
 

Вложения

  • 115,3 KB Просмотры: 0
    Личеров 0
    Сидеров 0
    Файлов 1
    Объем 5,7 GB

Привет!

Мы группа людей которые решили помочь другим в решении их проблем, а так же пользователям с поиском самых свежих и качественных инфопродуктов. За 4 с небольшим месяца мы создали этот форум на который заходят ежедневно тысячи человек и посещаемость постоянно растёт. Мы создали панель лицензирования для защиты PHP скриптов от воровства и SEO панель для мониторинга наших сайтов и выбора верной стратегии их развития. Мы надеемся что то что мы создали пригодится Вам и возможно Вы поможете нам развиваться и совершенствоваться вместе с Вами.

Статистика форума

Темы
406.656
Сообщения
465.106
Пользователи
84.674
Новый пользователь
Юрий 1990

Приложения форума для iOS и Android


У ркн там нет власти ;)
Приватные разговоры
Помощь Пользователи
    Вы не присоединились ни к одной комнате.