За последнюю неделю опубликовано 133 новых материалов.
Инструкция новичку Путеводитель по форуму Прокси для Telegram Показать подсказки , это бомба!

Скачать Тамара Миансарова - Золотая коллекция Ретро (2005) APE by гаврила бесплатно через торрент

  • Поучаствуй (в качестве покупателя) в любых пяти совместных покупках (кроме завершённых и "Моментальных") и получи группу "Новичок" навсегда -> ссылка на раздел
  • Получай до 480 рублей за каждого приглашенного пользователя!
    представляем Вам очередное расширение партнерской программы, подробности описаны тут -> ссылка
  • 90% материалов доступно к скачиванию после простой регистрации!
    Если же ты хочешь скачивать материалы без требования оставлять отзывы то получи группу "Новичок", 10 способов повышения описаны тут -> ссылка
  • К сожалению количество битых ссылок растет и мы уже не можем их оперативно восстанавливать поэтому просим помощи у каждого нашего пользователя.
    С сегодняшнего дня, за каждую восстановленную ссылку мы заплатим Вам.
    Подробнее тут -> ссылка
  • Перенесем твои заслуги с другого ресурса!
    Мы понимаем как сложно прокачивать аккаунты на форумах, вроде раскачал аккаунт, а тут появляется ресурс в 100 раз круче но тоже с системой прокачки и снова качать аккаунт...
    Предлагаем вам перенести Ваши заслуги на другом подобном ресурсе к нам.
    Подробности описаны тут -> ссылка
  • Вы можете получать по 2.5% с каждой покупки и продажи на маркете! Подробности в теме Партнёрская программа

Torrent_Bot

Торрент-Бот
Бот форума
4 Окт 2016
123
108
20
Трэклист:
1. Ты придешь (С.Туликов - Г.Ходосов)
2. Дождь (К.Капнискис - русск. текст А.Ольгина)
3. Ты лучше всех (Э.Рознер - М.Пляцковский)
4. Молодость (П.Донаджо - русск. текст М.Пляцковского)
5. Песня в небе пролетает (Л.Лядова - В.Петров)
6. Вечные звёзды (П.Спектор - русск. текст Б.Брянского)
7. Летка - шутка (И.Васич - русск. текст Б.Брянского)
8. Весенний дождь (Б.Швайдер - русск. текст Ю.Цейтлина)
9. Пламя осени (С.Турлянский - А.Софронов)
10. Подарите мне улыбку (Ф.Марин - русск. текст Ю.Полухина)
11. Сказка о любви (Л.Лядова - В.Лазарев)
12. Календарь (В.Кудряшов - М.Рябинин)
13. Идут дожди (И.Шамо - Л.Смирнова)
14. Песня о песнях (Т.Миансарова - И.Хлебников)
15. Две весны.Околица (И.Поклад - Ю.Рыбчинский)
16. Лебединая песня (Е.Дергунов - А.Янкова)
17. Вишня (С.Сабадоли - З.Бычков)
18. Это было (Я не обижаюсь) (Ю.Гуляев - Р.Рождественский)
19. Верни любовь (И.Поклад - Ю.Рыбчинский)
20. Вот ведь какая (С.Рембовский - русск. текст А.Эппеля)
21. Черный кот (Ю.Саульский - М.Танич)

Жанр:Retro
Год выпуска диска: 2005
Производитель диска: Россия
Аудио кодек: APE
Тип рипа: image+.cue
Битрейт аудио: lossless
Продолжительность: 63м 50с

Exact Audio Copy V0.99 prebeta 4 from 23. January 2008
Отчёт EAC об извлечении, выполненном 27. октября 2008, 20:33
Тамара Миансарова / Золотая коллекция ретро
Дисковод: Optiarc DVD RW AD-5170A Adapter: 0 ID: 0
Режим чтения : Достоверность
Использование точного потока : Да
Отключение кэша аудио : Да
Использование указателей C2 : Нет
Коррекция смещения при чтении : 48
Способность читать области Lead-in и Lead-out : Нет
Заполнение пропущенных сэмплов тишиной : Да
Удаление блоков с тишиной в начале и конце : Нет
При вычислениях CRC использовались нулевые сэмплы : Да
Интерфейс : Установленный внешний ASPI-интерфейс
Выходной формат : Внутренние WAV-операции
Формат сэмплов : 44.100 Гц; 16 бит; стерео
TOC извлечённого CD
Трек | Старт | Длительность | Начальный сектор | Конечный сектор
---------------------------------------------------------------------
1 | 0:00.00 | 2:28.03 | 0 | 11102
2 | 2:28.03 | 3:41.13 | 11103 | 27690
3 | 6:09.16 | 2:29.71 | 27691 | 38936
4 | 8:39.12 | 3:07.02 | 38937 | 52963
5 | 11:46.14 | 1:39.18 | 52964 | 60406
6 | 13:25.32 | 2:40.15 | 60407 | 72421
7 | 16:05.47 | 2:27.49 | 72422 | 83495
8 | 18:33.21 | 2:27.32 | 83496 | 94552
9 | 21:00.53 | 2:40.24 | 94553 | 106576
10 | 23:41.02 | 1:59.71 | 106577 | 115572
11 | 25:40.73 | 4:09.45 | 115573 | 134292
12 | 29:50.43 | 3:31.14 | 134293 | 150131
13 | 33:21.57 | 2:29.60 | 150132 | 161366
14 | 35:51.42 | 2:01.32 | 161367 | 170473
15 | 37:52.74 | 3:47.10 | 170474 | 187508
16 | 41:40.09 | 3:09.47 | 187509 | 201730
17 | 44:49.56 | 3:24.13 | 201731 | 217043
18 | 48:13.69 | 2:47.69 | 217044 | 229637
19 | 51:01.63 | 4:20.55 | 229638 | 249192
20 | 55:22.43 | 5:49.45 | 249193 | 275412
21 | 61:12.13 | 2:38.31 | 275413 | 287293
Характеристики диапазона извлечения и сообщения об ошибках
Выбранный диапазон
Имя файла D:AudioТ.МиансароваТамара Миансарова - Золотая коллекция ретро.wav
Пиковый уровень 81.1 %
Качество диапазона 100.0 %
CRC копии 9A1C6609
Копирование... OK
Ошибок не произошло
Конец отчёта
 

Вложения

  • 14,5 KB Просмотры: 1
    Личеров 0
    Сидеров 0
    Файлов 12
    Объем 326,5 MB

Привет!

Мы группа людей которые решили помочь другим в решении их проблем, а так же пользователям с поиском самых свежих и качественных инфопродуктов. За 4 с небольшим месяца мы создали этот форум на который заходят ежедневно тысячи человек и посещаемость постоянно растёт. Мы создали панель лицензирования для защиты PHP скриптов от воровства и SEO панель для мониторинга наших сайтов и выбора верной стратегии их развития. Мы надеемся что то что мы создали пригодится Вам и возможно Вы поможете нам развиваться и совершенствоваться вместе с Вами.

Статистика форума

Темы
384.674
Сообщения
427.741
Пользователи
58.812
Новый пользователь
alex13rus

Приложения форума для iOS и Android


У ркн там нет власти ;)
Приватные разговоры
Помощь Пользователи
    Вы не присоединились ни к одной комнате.