За последнюю неделю опубликовано 0 новых материалов.
Инструкция новичку Путеводитель по форуму Прокси для Telegram Показать подсказки , это бомба!

Скачать Такой же другой, как и я / Same Kind of Different as Me (2017) BDRemux 1080p от MediaClub | iTunes бесплатно через торрент

  • Поучаствуй (в качестве покупателя) в любых пяти совместных покупках (кроме завершённых и "Моментальных") и получи группу "Новичок" навсегда -> ссылка на раздел
  • Получай до 480 рублей за каждого приглашенного пользователя!
    представляем Вам очередное расширение партнерской программы, подробности описаны тут -> ссылка
  • 90% материалов доступно к скачиванию после простой регистрации!
    Если же ты хочешь скачивать материалы без требования оставлять отзывы то получи группу "Новичок", 10 способов повышения описаны тут -> ссылка
  • К сожалению количество битых ссылок растет и мы уже не можем их оперативно восстанавливать поэтому просим помощи у каждого нашего пользователя.
    С сегодняшнего дня, за каждую восстановленную ссылку мы заплатим Вам.
    Подробнее тут -> ссылка
  • Перенесем твои заслуги с другого ресурса!
    Мы понимаем как сложно прокачивать аккаунты на форумах, вроде раскачал аккаунт, а тут появляется ресурс в 100 раз круче но тоже с системой прокачки и снова качать аккаунт...
    Предлагаем вам перенести Ваши заслуги на другом подобном ресурсе к нам.
    Подробности описаны тут -> ссылка
  • Вы можете получать по 2.5% с каждой покупки и продажи на маркете! Подробности в теме Партнёрская программа
Если Вы не хотите скачивать, Вы всегда можетепосмотретьонлайн, просто нажмите кнопку ниже :

Открыть плеер

Torrent_Bot

Торрент-Бот
Бот форума
4 Окт 2016
79
196
20
Информация о фильме
Название: Такой же другой, как и я
Оригинальное название: Same Kind of Different as Me
Год выхода: 2017
Жанр: Драма
Режиссер: Майкл Карни
В ролях:
Рене Зеллвегер, Джон Войт, Оливия Холт, Джимон Хонсу, Грег Киннир, Дэна Гурье, Пейтон Уич, Энн Махони, Лара Грайс, Джеральдин Сингер, Стефани Ли Шлунд,
Томас Мерфи, Нилс Стил

О фильме:
Со стороны кажется, что у успешного торговца произведениями искусства Рона Холла и его жены Дебби идеальная жизнь. Но когда их вера и семья подвергаются испытанию на прочность, неожиданное знакомство с бездомным приводит к удивительному путешествию, в котором рождается истинная дружба.





Страна: США
Студия: Disruption Entertainment, One October Films, Paramount Pictures
Продолжительность: 01:59:16
Перевод: Дублированный

Файл
Кодек: h.264
Качество: BDRemux 1080p
Видео: MPEG-4 AVC, 32.4 Mбит/с, 1920x1080, 23,976 кадр/с
Звук:
Русский (AC3, 6 ch, 384 Кбит/с) / дублированный (iTunes)
Аглийский (DTS-HD MA, 5 ch, 3072 Кбит/с)
Субтитры: Русские, английские

Семпл


MI
General
Unique ID : 338608525348622654292660443836879439097 (0xFEBDA13D272F1604197513031C1B84F9)
Complete name : D:uTorrentTakoi.zhe.drugoi.2017.BDRemux.1080p.MediaClub.mkv
Format : Matroska
Format version : Version 4 / Version 2
File size : 29.9 GiB
Duration : 1 h 59 min
Overall bit rate mode : Variable
Overall bit rate : 35.9 Mb/s
Encoded date : UTC 2018-03-04 16:52:39
Writing application : mkvmerge v19.0.0 ('Brave Captain') 64-bit
Writing library : libebml v1.3.5 + libmatroska v1.4.8
Cover : Yes
Attachments : cover.jpg

Video
ID : 1
Format : AVC
Format/Info : Advanced Video Codec
Format profile : [email protected]
Format settings : CABAC / 4 Ref Frames
Format settings, CABAC : Yes
Format settings, RefFrames : 4 frames
Codec ID : V_MPEG4/ISO/AVC
Duration : 1 h 59 min
Bit rate mode : Variable
Bit rate : 32.4 Mb/s
Maximum bit rate : 37.8 Mb/s
Width : 1 920 pixels
Height : 1 080 pixels
Display aspect ratio : 16:9
Frame rate mode : Constant
Frame rate : 23.976 (24000/1001) FPS
Color space : YUV
Chroma subsampling : 4:2:0
Bit depth : 8 bits
Scan type : Progressive
Bits/(Pixel*Frame) : 0.652
Stream size : 27.0 GiB (90%)
Title : BDRemux by Silverok
Default : Yes
Forced : No

Audio #1
ID : 2
Format : AC-3
Format/Info : Audio Coding 3
Codec ID : A_AC3
Duration : 1 h 59 min
Bit rate mode : Constant
Bit rate : 384 kb/s
Channel(s) : 6 channels
Channel positions : Front: L C R, Side: L R, LFE
Sampling rate : 48.0 kHz
Frame rate : 31.250 FPS (1536 SPF)
Bit depth : 16 bits
Compression mode : Lossy
Stream size : 328 MiB (1%)
Title : Профессиональный полное дублирование ( iTunes)
Language : Russian
Service kind : Complete Main
Default : Yes
Forced : No

Audio #2
ID : 3
Format : DTS
Format/Info : Digital Theater Systems
Format profile : MA / Core
Codec ID : A_DTS
Duration : 1 h 59 min
Bit rate mode : Variable / Constant
Bit rate : 3 072 kb/s / 1 509 kb/s
Channel(s) : 6 channels
Channel positions : Front: L C R, Side: L R, LFE
Sampling rate : 48.0 kHz
Frame rate : 93.750 FPS (512 SPF)
Bit depth : 24 bits
Compression mode : Lossless / Lossy
Stream size : 2.58 GiB (9%)
Language : English
Default : No
Forced : No

Text #1
ID : 4
Format : UTF-8
Codec ID : S_TEXT/UTF8
Codec ID/Info : UTF-8 Plain Text
Duration : 1 h 56 min
Bit rate : 75 b/s
Count of elements : 1198
Stream size : 64.4 KiB (0%)
Title : Full
Language : Russian
Default : No
Forced : No

Text #2
ID : 5
Format : UTF-8
Codec ID : S_TEXT/UTF8
Codec ID/Info : UTF-8 Plain Text
Duration : 1 h 56 min
Bit rate : 46 b/s
Count of elements : 1300
Stream size : 39.8 KiB (0%)
Title : Full
Language : English
Default : No
Forced : No

Menu
00:00:00.000 : en:Chapter 01
00:07:33.328 : en:Chapter 02
00:14:07.430 : en:Chapter 03
00:20:27.518 : en:Chapter 04
00:26:51.610 : en:Chapter 05
00:32:24.109 : en:Chapter 06
00:37:42.010 : en:Chapter 07
00:44:49.979 : en:Chapter 08
00:51:43.767 : en:Chapter 09
00:57:21.063 : en:Chapter 10
01:03:50.785 : en:Chapter 11
01:12:40.690 : en:Chapter 12
01:20:03.340 : en:Chapter 13
01:27:32.747 : en:Chapter 14
01:32:40.889 : en:Chapter 15
01:40:31.817 : en:Chapter 16
01:47:21.226 : en:Chapter 17
01:55:29.840 : en:Chapter 18
Скриншоты

Релиз от: | Silverok
 

Вложения

  • 75,7 KB Просмотры: 1
    Личеров 0
    Сидеров 0
    Файлов 1
    Объем 29,9 GB

Привет!

Мы группа людей которые решили помочь другим в решении их проблем, а так же пользователям с поиском самых свежих и качественных инфопродуктов. За 4 с небольшим месяца мы создали этот форум на который заходят ежедневно тысячи человек и посещаемость постоянно растёт. Мы создали панель лицензирования для защиты PHP скриптов от воровства и SEO панель для мониторинга наших сайтов и выбора верной стратегии их развития. Мы надеемся что то что мы создали пригодится Вам и возможно Вы поможете нам развиваться и совершенствоваться вместе с Вами.

Статистика форума

Темы
414.370
Сообщения
475.396
Пользователи
96.561
Новый пользователь
starushka

Приложения форума для iOS и Android


У ркн там нет власти ;)
Приватные разговоры
Помощь Пользователи
    Вы не присоединились ни к одной комнате.