За последнюю неделю опубликовано 86 новых материалов.
Инструкция новичку Путеводитель по форуму Прокси для Telegram Показать подсказки , это бомба!

Скачать Тайный мир Синдзюку / Shinjuku Triad Society / Shinjuku kuroshakai: Chaina (1995) BDRip-AVC | P бесплатно через торрент

  • Поучаствуй (в качестве покупателя) в любых пяти совместных покупках (кроме завершённых и "Моментальных") и получи группу "Новичок" навсегда -> ссылка на раздел
  • Получай до 480 рублей за каждого приглашенного пользователя!
    представляем Вам очередное расширение партнерской программы, подробности описаны тут -> ссылка
  • 90% материалов доступно к скачиванию после простой регистрации!
    Если же ты хочешь скачивать материалы без требования оставлять отзывы то получи группу "Новичок", 10 способов повышения описаны тут -> ссылка
  • К сожалению количество битых ссылок растет и мы уже не можем их оперативно восстанавливать поэтому просим помощи у каждого нашего пользователя.
    С сегодняшнего дня, за каждую восстановленную ссылку мы заплатим Вам.
    Подробнее тут -> ссылка
  • Перенесем твои заслуги с другого ресурса!
    Мы понимаем как сложно прокачивать аккаунты на форумах, вроде раскачал аккаунт, а тут появляется ресурс в 100 раз круче но тоже с системой прокачки и снова качать аккаунт...
    Предлагаем вам перенести Ваши заслуги на другом подобном ресурсе к нам.
    Подробности описаны тут -> ссылка
  • Вы можете получать по 2.5% с каждой покупки и продажи на маркете! Подробности в теме Партнёрская программа
Если Вы не хотите скачивать, Вы всегда можетепосмотретьонлайн, просто нажмите кнопку ниже :

Открыть плеер

Torrent_Bot

Торрент-Бот
Бот форума
4 Окт 2016
102
153
20



Информация о фильме
Название: Тайный мир Синдзюку
Оригинальное название: Shinjuku Triad Society / Shinjuku kuroshakai: Chaina mafia sensô
Год выхода: 1995
Жанр: драма, детектив, триллер, криминал
Режиссер: Такаси Миике
В ролях: Киппэй Сина, Томорово Тагути, Такеши Цезар, Рен Осуги, Сэй Хираидзуми, Юки Ито, Кёскэ Идзуцу, Синсуке Идзуцу, Казухиро Машико, Сабу, Мандзо Синра, Масахиро Судо, Ёдзи Танака

О фильме:
Одна семья японской якудза бьется с другой из-за бизнеса. Один полицейский решает остановить кровопролитие. При этом он действует нестандартными методами: насилует мужчин и женщин, от которых хочет добиться показаний



Страна: Япония
Продолжительность: 01:41:17
Перевод: Профессиональный (многоголосый закадровый) Другое кино + Оригинал

Файл
Кодек: x.264
Качество: BDRip-AVC | исх. BDRemux 1080р
Видео: h264 / 2370 kbps / 1008x544 / 23,976 fps
Аудио 1: 48 kHz / 2 ch / 192 kbps | Профессиональный (многоголосый закадровый)
Аудио 2: 48 kHz / 2 ch / 192 kbps | Оригинал
Субтитры: Русские, Английские

Релиз от: Alukard14

log
x264 [info]: frame I:1208 Avg QP:20.10 size: 52836
x264 [info]: frame P:21878 Avg QP:23.48 size: 21161
x264 [info]: frame B:122618 Avg QP:24.62 size: 10370
x264 [info]: consecutive B-frames: 8.4% 0.1% 0.2% 0.2% 1.1% 0.3% 0.3% 0.4% 0.6% 0.4% 0.5% 0.6% 86.9%
x264 [info]: mb I I16..4: 4.9% 86.9% 8.2%
x264 [info]: mb P I16..4: 0.3% 5.3% 0.4% P16..4: 35.6% 42.4% 13.2% 0.0% 0.0% skip: 2.8%
x264 [info]: mb B I16..4: 0.0% 0.5% 0.1% B16..8: 40.9% 21.4% 4.0% direct: 6.4% skip:26.6% L0:49.7% L1:45.9% BI: 4.4%
x264 [info]: 8x8 transform intra:87.4% inter:61.4%
x264 [info]: direct mvs spatial:99.6% temporal:0.4%
x264 [info]: coded y,uvDC,uvAC intra: 90.6% 79.0% 48.4% inter: 34.6% 17.6% 2.3%
x264 [info]: i16 v,h,dc,p: 32% 23% 10% 35%
x264 [info]: i8 v,h,dc,ddl,ddr,vr,hd,vl,hu: 5% 5% 5% 11% 18% 15% 16% 11% 13%
x264 [info]: i4 v,h,dc,ddl,ddr,vr,hd,vl,hu: 6% 7% 5% 10% 17% 14% 17% 11% 14%
x264 [info]: i8c dc,h,v,p: 38% 26% 18% 18%
x264 [info]: Weighted P-Frames: Y:6.0% UV:1.2%
x264 [info]: ref P L0: 39.9% 7.8% 18.2% 7.9% 6.8% 5.0% 4.7% 2.4% 2.3% 1.9% 1.9% 1.0% 0.0%
x264 [info]: ref B L0: 58.2% 15.5% 9.2% 5.0% 3.7% 3.2% 2.6% 1.6% 0.8% 0.2%
x264 [info]: ref B L1: 86.9% 13.1%
x264 [info]: kb/s:2367.32
MediaInfo
Общее
Уникальный идентификатор : 215006448964049068404636835254283939745 (0xA1C0BC5F548564158E6C2BCEE55A2FA1)
Полное имя : E:TestShinjuku.Triad.Society.1995.BDRip-AVC.by.Alukard14.mkv
Формат : Matroska
Версия формата : Version 2
Размер файла : 1,95 Гбайт
Продолжительность : 1 ч. 41 м.
Общий поток : 2752 Кбит/сек
Название фильма : Shinjuku.Triad.Society.1995.BDRemux.1080p-porvaliparus
Дата кодирования : UTC 2019-06-05 13:22:55
Программа кодирования : mkvmerge v4.1.1 ('Bouncin' Back') сборка от Jul 3 2010 22:54:08
Библиотека кодирования : libebml v1.0.0 + libmatroska v1.0.0

Видео
Идентификатор : 1
Формат : AVC
Формат/Информация : Advanced Video Codec
Профиль формата : High@L4.1
Настройки формата : CABAC / 11 Ref Frames
Параметр CABAC формата : Да
Параметр RefFrames формата : 11 кадров
Идентификатор кодека : V_MPEG4/ISO/AVC
Продолжительность : 1 ч. 41 м.
Битрейт : 2370 Кбит/сек
Ширина : 1008 пикселей
Высота : 544 пикселя
Соотношение сторон : 1,85:1
Режим частоты кадров : Постоянный
Частота кадров : 23,976 кадра/сек
Цветовое пространство : YUV
Субдискретизация насыщенности : 4:2:0
Битовая глубина : 8 бит
Тип развёртки : Прогрессивная
Бит/(Пиксели*Кадры) : 0.180
Размер потока : 1,64 Гбайт (84%)
Библиотека кодирования : x264 core 148 r2638 7599210
Настройки программы : cabac=1 / ref=11 / deblock=1:-3:-3 / analyse=0x3:0x113 / me=umh / subme=11 / psy=1 / psy_rd=1.00:0.00 / mixed_ref=1 / me_range=48 / chroma_me=1 / trellis=2 / 8x8dct=1 / cqm=0 / deadzone=21,11 / fast_pskip=0 / chroma_qp_offset=-2 / threads=9 / lookahead_threads=1 / sliced_threads=0 / nr=0 / decimate=0 / interlaced=0 / bluray_compat=0 / constrained_intra=0 / bframes=12 / b_pyramid=2 / b_adapt=0 / b_bias=0 / direct=3 / weightb=1 / open_gop=0 / weightp=2 / keyint=240 / keyint_min=24 / scenecut=40 / intra_refresh=0 / rc_lookahead=40 / rc=2pass / mbtree=0 / bitrate=2370 / ratetol=1.0 / qcomp=0.60 / qpmin=0 / qpmax=69 / qpstep=2 / cplxblur=20.0 / qblur=0.5 / vbv_maxrate=14000 / vbv_bufsize=14000 / nal_hrd=none / filler=0 / ip_ratio=1.40 / pb_ratio=1.30 / aq=1:1.00
Default : Да
Forced : Нет

Аудио #1
Идентификатор : 2
Формат : AC-3
Формат/Информация : Audio Coding 3
Режим смешивания : Header stripping
Идентификатор кодека : A_AC3
Продолжительность : 1 ч. 41 м.
Вид битрейта : Постоянный
Битрейт : 192 Кбит/сек
Каналы : 2 канала
Расположение каналов : Front: L R
Частота : 48,0 КГц
Частота кадров : 31,250 кадров/сек (1536 SPF)
Битовая глубина : 16 бит
Метод сжатия : С потерями
Размер потока : 139 Мбайт (7%)
Default : Да
Forced : Нет

Аудио #2
Идентификатор : 5
Формат : AC-3
Формат/Информация : Audio Coding 3
Режим смешивания : Header stripping
Идентификатор кодека : A_AC3
Продолжительность : 1 ч. 41 м.
Вид битрейта : Постоянный
Битрейт : 192 Кбит/сек
Каналы : 2 канала
Расположение каналов : Front: L R
Частота : 48,0 КГц
Частота кадров : 31,250 кадров/сек (1536 SPF)
Битовая глубина : 16 бит
Метод сжатия : С потерями
Размер потока : 139 Мбайт (7%)
Default : Нет
Forced : Нет

Текст #1
Идентификатор : 3
Формат : UTF-8
Идентификатор кодека : S_TEXT/UTF8
Идентификатор кодека/Информация : UTF-8 Plain Text
Заголовок : Beary
Язык : Russian
Default : Нет
Forced : Нет

Текст #2
Идентификатор : 4
Формат : UTF-8
Идентификатор кодека : S_TEXT/UTF8
Идентификатор кодека/Информация : UTF-8 Plain Text
Язык : English
Default : Нет
Forced : Нет
Statistics Tags Issue : mkvmerge v26.0.0 ('In The Game') 64-bit 2018-09-17 13:21:22 / mkvmerge v4.1.1 ('Bouncin' Back') сборка от Jul 3 2010 22:54:08 2019-06-05 13:22:55
FromStats_BitRate : 28
FromStats_Duration : 01:41:05.518000000
FromStats_FrameCount : 748
FromStats_StreamSize : 21352

Меню
00:00:00.000 : en:00:00:00.000
00:08:53.366 : en:00:08:53.366
00:16:53.471 : en:00:16:53.471
00:26:14.364 : en:00:26:14.364
00:34:50.005 : en:00:34:50.005
00:41:08.049 : en:00:41:08.049
00:51:15.197 : en:00:51:15.197
01:00:37.300 : en:01:00:37.300
01:09:45.098 : en:01:09:45.098
01:16:35.049 : en:01:16:35.049
01:24:19.012 : en:01:24:19.012
01:35:44.614 : en:01:35:44.614
Скриншоты
 

Вложения

  • 20,5 KB Просмотры: 1
    Личеров 0
    Сидеров 0
    Файлов 1
    Объем 1,9 GB

Привет!

Мы группа людей которые решили помочь другим в решении их проблем, а так же пользователям с поиском самых свежих и качественных инфопродуктов. За 4 с небольшим месяца мы создали этот форум на который заходят ежедневно тысячи человек и посещаемость постоянно растёт. Мы создали панель лицензирования для защиты PHP скриптов от воровства и SEO панель для мониторинга наших сайтов и выбора верной стратегии их развития. Мы надеемся что то что мы создали пригодится Вам и возможно Вы поможете нам развиваться и совершенствоваться вместе с Вами.

Статистика форума

Темы
405.448
Сообщения
462.414
Пользователи
80.457
Новый пользователь
andrei39

Приложения форума для iOS и Android


У ркн там нет власти ;)
Приватные разговоры
Помощь Пользователи
    Вы не присоединились ни к одной комнате.