За последнюю неделю опубликовано 29 новых материалов.
Инструкция новичку Путеводитель по форуму Прокси для Telegram Показать подсказки , это бомба!

Скачать Тайны старого отеля / The Innkeepers (2011) BDRemux 1080р | D бесплатно через торрент

  • Поучаствуй (в качестве покупателя) в любых пяти совместных покупках (кроме завершённых и "Моментальных") и получи группу "Новичок" навсегда -> ссылка на раздел
  • Получай до 480 рублей за каждого приглашенного пользователя!
    представляем Вам очередное расширение партнерской программы, подробности описаны тут -> ссылка
  • 90% материалов доступно к скачиванию после простой регистрации!
    Если же ты хочешь скачивать материалы без требования оставлять отзывы то получи группу "Новичок", 10 способов повышения описаны тут -> ссылка
  • К сожалению количество битых ссылок растет и мы уже не можем их оперативно восстанавливать поэтому просим помощи у каждого нашего пользователя.
    С сегодняшнего дня, за каждую восстановленную ссылку мы заплатим Вам.
    Подробнее тут -> ссылка
  • Перенесем твои заслуги с другого ресурса!
    Мы понимаем как сложно прокачивать аккаунты на форумах, вроде раскачал аккаунт, а тут появляется ресурс в 100 раз круче но тоже с системой прокачки и снова качать аккаунт...
    Предлагаем вам перенести Ваши заслуги на другом подобном ресурсе к нам.
    Подробности описаны тут -> ссылка
  • Вы можете получать по 2.5% с каждой покупки и продажи на маркете! Подробности в теме Партнёрская программа
Если Вы не хотите скачивать, Вы всегда можетепосмотретьонлайн, просто нажмите кнопку ниже :

Открыть плеер

Torrent_Bot

Торрент-Бот
Бот форума
4 Окт 2016
93
155
20
Информация о фильме
Название: Тайны старого отеля
Оригинальное название: The Innkeepers
Год выхода: 2011
Жанр: ужасы
Режиссер: Тай Уэст
В ролях: Сара Пэкстон, Пэт Хили, Элисон Бартлетт, Келли МакГиллис, Лена Данхэм, Джордж Риддл, Бренда Куни, Джон Спередакос, Шон Рейд, Томас Махони, Майкл Мартин, Майкл П. Кастелли

Описание: Yankee Pedlar Inn является одним из старейших отелей и находится на грани закрытия. Клэр и Люк — последние работники, которые большую часть рабочего времени скучают и придумывают себе развлечения. Есть легенда, что в отеле обитают призраки, поэтому Клэр с Люком решают разгадать их тайну.



Страна: США
Продолжительность: 01:41:20
Перевод: Профессиональный (дублированный) лицензия R5
Субтитры: русские, английские
Оригинальная аудиодорожка: английский

Файл
Качество: BDRemux 1080р
Видео: MPEG-4 AVC / 16,4 Mbps / 1920x1080 / 23.976 fps / 16:9 / High Profile 4.1
Аудио 1: AC3 / 5.1 / 48 kHz / 384 kbps / 16 bits |rus|
Аудио 2: DTS-HD Master Audio / 5.1 / 48 kHz / 2472 kbps / 24 bits (DTS Core: 5.1 / 48 kHz / 1510 kbps / 24 bits) |eng|

Скриншоты
MediaInfo
Общее
Уникальный идентификатор : 229679525943222688977199364714611490655 (0xACCAAAEBF0DBF48FBF0851366BCE3F5F)
Полное имя : E:ВидеоHD фильмыTayni.starogo.otelya.2011.x264.BluRay-Remux.(1080p).mkv
Формат : Matroska
Версия формата : Version 2
Размер файла : 13,3 Гбайт
Продолжительность : 1 ч. 41 м.
Режим общего битрейта : Переменный
Общий поток : 18,8 Мбит/сек
Дата кодирования : UTC 2012-05-02 22:43:58
Программа кодирования : mkvmerge v4.0.0 ('The Stars were mine') сборка от Jun 6 2010 16:18:42
Библиотека кодирования : libebml v1.0.0 libmatroska v1.0.0

Видео
Идентификатор : 1
Формат : AVC
Формат/Информация : Advanced Video Codec
Профиль формата : High@L4.1
Параметр CABAC формата : Да
Параметр ReFrames формата : 4 кадра
Режим смешивания : Container profile=Unknown@0.0
Идентификатор кодека : V_MPEG4/ISO/AVC
Продолжительность : 1 ч. 41 м.
Вид битрейта : Переменный
Битрейт : 16,4 Мбит/сек
Максимальный битрейт : 37,0 Мбит/сек
Ширина : 1920 пикселей
Высота : 1080 пикселей
Соотношение сторон : 16:9
Частота кадров : 23,976 кадра/сек
Цветовое пространство : YUV
Субдискретизация насыщенности : 4:2:0
Битовая глубина : 8 бит
Тип развёртки : Прогрессивная
Бит/(Пиксели*Кадры) : 0.330
Размер потока : 11,6 Гбайт (88%)
Default : Нет
Forced : Нет

Аудио #1
Идентификатор : 2
Формат : AC-3
Формат/Информация : Audio Coding 3
Расширение режима : CM (complete main)
Параметр Endianness формата : Big
Идентификатор кодека : A_AC3
Продолжительность : 1 ч. 41 м.
Вид битрейта : Постоянный
Битрейт : 384 Кбит/сек
Каналы : 6 каналов
Расположение каналов : Front: L C R, Side: L R, LFE
Частота : 48,0 КГц
Битовая глубина : 16 бит
Метод сжатия : С потерями
Размер потока : 278 Мбайт (2%)
Язык : Russian
Default : Да
Forced : Нет

Аудио #2
Идентификатор : 3
Формат : DTS
Формат/Информация : Digital Theater Systems
Профиль формата : MA / Core
Идентификатор кодека : A_DTS
Продолжительность : 1 ч. 41 м.
Вид битрейта : Переменный
Битрейт : 1576 Кбит/сек / 1510 Кбит/сек
Каналы : 6 каналов
Расположение каналов : Front: L C R, Side: L R, LFE
Частота : 48,0 КГц
Битовая глубина : 24 бит
Метод сжатия : Без потерь / Lossy
Язык : English
Default : Нет
Forced : Нет

Текст #1
Идентификатор : 4
Формат : UTF-8
Идентификатор кодека : S_TEXT/UTF8
Идентификатор кодека/Информация : UTF-8 Plain Text
Язык : Russian
Default : Нет
Forced : Нет

Текст #2
Идентификатор : 5
Формат : UTF-8
Идентификатор кодека : S_TEXT/UTF8
Идентификатор кодека/Информация : UTF-8 Plain Text
Язык : English
Default : Нет
Forced : Нет

Меню
00:00:00.000 : :Chapter 01
00:02:48.918 : :Chapter 02
00:07:59.437 : :Chapter 03
00:11:59.468 : :Chapter 04
00:14:43.966 : :Chapter 05
00:20:25.140 : :Chapter 06
00:25:07.255 : :Chapter 07
00:29:05.160 : :Chapter 08
00:34:23.561 : :Chapter 09
00:40:22.962 : :Chapter 10
00:48:57.476 : :Chapter 11
00:52:18.343 : :Chapter 12
00:59:13.091 : :Chapter 13
01:06:37.284 : :Chapter 14
01:10:15.085 : :Chapter 15
01:16:18.240 : :Chapter 16
01:20:49.553 : :Chapter 17
01:26:49.662 : :Chapter 18
01:30:20.373 : :Chapter 19
01:37:04.819 : :Chapter 20
 

Вложения

  • 34,2 KB Просмотры: 1
    Личеров 0
    Сидеров 0
    Файлов 1
    Объем 13,3 GB

Привет!

Мы группа людей которые решили помочь другим в решении их проблем, а так же пользователям с поиском самых свежих и качественных инфопродуктов. За 4 с небольшим месяца мы создали этот форум на который заходят ежедневно тысячи человек и посещаемость постоянно растёт. Мы создали панель лицензирования для защиты PHP скриптов от воровства и SEO панель для мониторинга наших сайтов и выбора верной стратегии их развития. Мы надеемся что то что мы создали пригодится Вам и возможно Вы поможете нам развиваться и совершенствоваться вместе с Вами.

Статистика форума

Темы
406.538
Сообщения
464.648
Пользователи
83.256
Новый пользователь
Asasa33

Приложения форума для iOS и Android


У ркн там нет власти ;)
Приватные разговоры
Помощь Пользователи
    Вы не присоединились ни к одной комнате.