За последнюю неделю опубликовано 65 новых материалов.
Инструкция новичку Путеводитель по форуму Прокси для Telegram Показать подсказки , это бомба!

Скачать Тайная крепость / Скрытая крепость / La Forteresse suspendue (2001) WEB-DL 1080p | D, P бесплатно через торрент

  • Поучаствуй (в качестве покупателя) в любых пяти совместных покупках (кроме завершённых и "Моментальных") и получи группу "Новичок" навсегда -> ссылка на раздел
  • Получай до 480 рублей за каждого приглашенного пользователя!
    представляем Вам очередное расширение партнерской программы, подробности описаны тут -> ссылка
  • 90% материалов доступно к скачиванию после простой регистрации!
    Если же ты хочешь скачивать материалы без требования оставлять отзывы то получи группу "Новичок", 10 способов повышения описаны тут -> ссылка
  • К сожалению количество битых ссылок растет и мы уже не можем их оперативно восстанавливать поэтому просим помощи у каждого нашего пользователя.
    С сегодняшнего дня, за каждую восстановленную ссылку мы заплатим Вам.
    Подробнее тут -> ссылка
  • Перенесем твои заслуги с другого ресурса!
    Мы понимаем как сложно прокачивать аккаунты на форумах, вроде раскачал аккаунт, а тут появляется ресурс в 100 раз круче но тоже с системой прокачки и снова качать аккаунт...
    Предлагаем вам перенести Ваши заслуги на другом подобном ресурсе к нам.
    Подробности описаны тут -> ссылка
  • Вы можете получать по 2.5% с каждой покупки и продажи на маркете! Подробности в теме Партнёрская программа
Если Вы не хотите скачивать, Вы всегда можетепосмотретьонлайн, просто нажмите кнопку ниже :

Открыть плеер

Torrent_Bot

Торрент-Бот
Бот форума
4 Окт 2016
92
160
20



Информация о фильме
Название: Тайная крепость / Скрытая крепость
Оригинальное название: La Forteresse suspendue
Год выхода: 2001
Жанр: комедия, семейный, приключения
Режиссер: Роджер Кантин
В ролях: Мэттью Дюпуа, Роксана Годетт-Луазо, Жером Леклерк-Кутюр, Жан-Филипп Дебьян, Шарли Аркуэтт-Мартино, Ксавье Долан, Лорен-Кристоф Де Рюлле, Джереми Ганьон, Кармина Сенозье, Эмили Сирен-Парен, Хьюго Дюбэ, Жорж Броссар

О фильме:
На берегу Черного озера дети целыми днями играют в странную игру. Они ведут безжалостную хитроумную войну между Конкистадорами и Индейцами. В то время как Конкистадоры оттачивают искусство устраивать засады и внезапные нападения, Индейцы пытаются сохранить свою тайну. Действие фильма разворачивается вокруг установленной высоко на деревьях магической крепости, которую индейцы используют в качестве своего штаба.



Производство: Канада / Les Productions La Fête Inc.
Продолжительность: 01:35:11
Перевод: профессиональный дубляж (Культура), профессиональный многоголосый закадровый (по заказу ВГТРК)

Файл
Качество: WEB-DL 1080p
Формат: MKV
Видео: MPEG-4 AVC, 1912x1032 (1.85:1), 23.976 fps, 5084 kbps, 0.107 bit/pixel
Аудио #1: русский, AC3 2.0, 48 kHz, 192 kbps | DUB
Аудио #2: русский, AC3 2.0, 48 kHz, 192 kbps | MVO
Аудио #3: французский, AC3 5.1, 48 kHz, 384 kbps

*** В озвучке ВГТРК вырезали пару сцен, на их место сделаны вставки из дубляжа

MediaInfo
Общее
Уникальный идентификатор : 239111713133118119877762645914234314995 (0xB3E33DA789C87A86A9E6D2B9034AE0F3)
Полное имя : The.Hidden.Fortress.2001.WEB-DL.1080p.mkv
Формат : Matroska
Версия формата : Version 4
Размер файла : 3,97 Гбайт
Продолжительность : 1 ч. 35 м.
Общий поток : 5 971 Кбит/сек
Дата кодирования : UTC 2020-08-06 10:39:23
Программа кодирования : mkvmerge v7.9.0 ('Birds') 64bit
Библиотека кодирования : libebml v1.3.1 + libmatroska v1.4.2

Видео
Идентификатор : 1
Формат : AVC
Формат/Информация : Advanced Video Codec
Профиль формата : [email protected]
Настройки формата : CABAC / 4 Ref Frames
Параметр CABAC формата : Да
Параметр RefFrames формата : 4 кадра
Идентификатор кодека : V_MPEG4/ISO/AVC
Продолжительность : 1 ч. 35 м.
Битрейт : 5 084 Кбит/сек
Ширина : 1 912 пикселей
Высота : 1 032 пикселя
Соотношение сторон : 1,85:1
Режим частоты кадров : Постоянный
Частота кадров : 23,976 (24000/1001) кадра/сек
Цветовое пространство : YUV
Субдискретизация насыщенности : 4:2:0
Битовая глубина : 8 бит
Тип развёртки : Прогрессивная
Бит/(Пиксели*Кадры) : 0.107
Размер потока : 3,38 Гбайт (85%)
Язык : English
Default : Да
Forced : Нет
Цветовой диапазон : Limited
Основные цвета : BT.709
Характеристики трансфера : BT.709
Коэффициенты матрицы : BT.709
Statistics Tags Issue : mkvmerge v45.0.0 ('Heaven in Pennies') 64-bit 2020-06-07 04:06:49 / mkvmerge v7.9.0 ('Birds') 64bit 2020-08-06 10:39:23
FromStats_BitRate : 5200205
FromStats_Duration : 01:35:11.373000000
FromStats_FrameCount : 136936
FromStats_StreamSize : 3712539108
Duration_Source : General_Duration

Аудио #1
Идентификатор : 2
Формат : AC-3
Формат/Информация : Audio Coding 3
Коммерческое название : Dolby Digital
Идентификатор кодека : A_AC3
Продолжительность : 1 ч. 35 м.
Вид битрейта : Постоянный
Битрейт : 192 Кбит/сек
Каналы : 2 канала
Channel layout : L R
Частота : 48,0 КГц
Частота кадров : 31,250 кадров/сек (1536 SPF)
Метод сжатия : С потерями
Размер потока : 131 Мбайт (3%)
Заголовок : Дубляж
Язык : Russian
Service kind : Complete Main
Default : Да
Forced : Нет
Duration_Source : General_Duration

Аудио #2
Идентификатор : 3
Формат : AC-3
Формат/Информация : Audio Coding 3
Коммерческое название : Dolby Digital
Идентификатор кодека : A_AC3
Продолжительность : 1 ч. 35 м.
Вид битрейта : Постоянный
Битрейт : 192 Кбит/сек
Каналы : 2 канала
Channel layout : L R
Частота : 48,0 КГц
Частота кадров : 31,250 кадров/сек (1536 SPF)
Метод сжатия : С потерями
Размер потока : 131 Мбайт (3%)
Заголовок : ВГТРК
Язык : Russian
Service kind : Complete Main
Default : Нет
Forced : Нет
Duration_Source : General_Duration

Аудио #3
Идентификатор : 4
Формат : AC-3
Формат/Информация : Audio Coding 3
Коммерческое название : Dolby Digital
Идентификатор кодека : A_AC3
Продолжительность : 1 ч. 35 м.
Вид битрейта : Постоянный
Битрейт : 384 Кбит/сек
Каналы : 6 каналов
Channel layout : L R C LFE Ls Rs
Частота : 48,0 КГц
Частота кадров : 31,250 кадров/сек (1536 SPF)
Метод сжатия : С потерями
Размер потока : 261 Мбайт (6%)
Язык : French
Service kind : Complete Main
Default : Нет
Forced : Нет
Duration_Source : General_Duration

Меню
00:00:00.000 : en:1
00:10:06.189 : en:2
00:21:47.974 : en:3
00:30:34.041 : en:4
00:40:11.410 : en:5
00:50:39.413 : en:6
01:00:08.023 : en:7
01:10:42.991 : en:8
01:21:34.142 : en:9
Скриншоты
 

Вложения

  • 20,8 KB Просмотры: 0
    Личеров 0
    Сидеров 0
    Файлов 1
    Объем 4 GB

Привет!

Мы группа людей которые решили помочь другим в решении их проблем, а так же пользователям с поиском самых свежих и качественных инфопродуктов. За 4 с небольшим месяца мы создали этот форум на который заходят ежедневно тысячи человек и посещаемость постоянно растёт. Мы создали панель лицензирования для защиты PHP скриптов от воровства и SEO панель для мониторинга наших сайтов и выбора верной стратегии их развития. Мы надеемся что то что мы создали пригодится Вам и возможно Вы поможете нам развиваться и совершенствоваться вместе с Вами.

Статистика форума

Темы
406.658
Сообщения
465.103
Пользователи
84.685
Новый пользователь
глоитпоа

Приложения форума для iOS и Android


У ркн там нет власти ;)
Приватные разговоры
Помощь Пользователи
    Вы не присоединились ни к одной комнате.