За последнюю неделю опубликовано 107 новых материалов.
Инструкция новичку Путеводитель по форуму Прокси для Telegram Показать подсказки , это бомба!

Скачать Таинственный узник (1986) TVRip бесплатно через торрент

  • Поучаствуй (в качестве покупателя) в любых пяти совместных покупках (кроме завершённых и "Моментальных") и получи группу "Новичок" навсегда -> ссылка на раздел
  • Получай до 480 рублей за каждого приглашенного пользователя!
    представляем Вам очередное расширение партнерской программы, подробности описаны тут -> ссылка
  • 90% материалов доступно к скачиванию после простой регистрации!
    Если же ты хочешь скачивать материалы без требования оставлять отзывы то получи группу "Новичок", 10 способов повышения описаны тут -> ссылка
  • К сожалению количество битых ссылок растет и мы уже не можем их оперативно восстанавливать поэтому просим помощи у каждого нашего пользователя.
    С сегодняшнего дня, за каждую восстановленную ссылку мы заплатим Вам.
    Подробнее тут -> ссылка
  • Перенесем твои заслуги с другого ресурса!
    Мы понимаем как сложно прокачивать аккаунты на форумах, вроде раскачал аккаунт, а тут появляется ресурс в 100 раз круче но тоже с системой прокачки и снова качать аккаунт...
    Предлагаем вам перенести Ваши заслуги на другом подобном ресурсе к нам.
    Подробности описаны тут -> ссылка
  • Вы можете получать по 2.5% с каждой покупки и продажи на маркете! Подробности в теме Партнёрская программа
Если Вы не хотите скачивать, Вы всегда можетепосмотретьонлайн, просто нажмите кнопку ниже :

Открыть плеер

Torrent_Bot

Торрент-Бот
Бот форума
4 Окт 2016
84
173
20
Информация о фильме
Оригинальное название: Таинственный узник
Год выхода: 1986
Жанр: Драма, исторический, приключения
Режиссер: Валериу Гажиу
В ролях: Георгий Грыу, Дмитрий Харатьян, Ольга Сирина, Лариса Гузеева, Александр Лазарев, Геннадий Чулков, Ефим Лазарев, Галикс Колчицкий, Валериу Каланча, Александр Клешнин, Галина Сазонова, Валентин Куку-Бужор, Павел Белозеров, Гурам Пирцхалава, Михаил Бадикяну, Михай Курагэу, Серджиу Финити, Виктор Игнат, Константин Константинов, Жан Кукурузак, Александр Сирин, Вадим Вилски, Николае Дарие, Виктор Чутак, Иван Музыка, Николай Устинов

О фильме: По мотивам исторического романа Ольги Форш «Одеты камнем» и документам III отделения императорской канцелярии. История человека, повторившего сто с лишним лет назад в России трагическую судьбу «Железной Маски». До революции о нем ходили только легенды. Только в 20-е годы нашего века узнали, что таинственным узником Петропавловской крепости, который провел 20 лет в одиночной камере, был сын бессарабского дворянина. Двое друзей - юнкера Серж и Михаил - одержимы идеей декабристов сделать Россию свободной от тирании царя. Михаил едет сражаться в рядах повстанцев у Гарибальди за республиканскую Италию. Возвращаясь на родину, при переходе границы он был арестован и препровожден в казематы Алексеевского равелина - самой охраняемой крепости России. Тщетно пытается Серж помочь освободить друга. Теперь вся надежда остается на очаровательную графиню Россети, страстно влюбленную в Михаила.

Страна: СССР
Студия: Молдова Фильм, Совинфильм
Продолжительность: 01:27:01
Язык: Русский
Субтитры: Нет



Файл
Тип релиза: TVRip
Видео: 704x400 (1.76:1), 25 fps, DivX ~2047 kbps avg, 0.29 bit/pixel
Аудио: 48 kHz, AC3 Dolby Digital, 2/0 (L,R) ch, ~192.00 kbps avg

Сэмпл


MediaInfo
Общее
Полное имя : D:1АААТаинственный узник.avi
Формат : AVI
Формат/Информация : Audio Video Interleave
Размер файла : 1,37 Гбайт
Продолжительность : 1 ч. 27 м.
Общий поток : 2249 Кбит/сек
Программа кодирования : VirtualDubMod 1.5.10.2 (build 2540/release)
Библиотека кодирования : VirtualDubMod build 2540/release

Видео
Идентификатор : 0
Формат : MPEG-4 Visual
Параметр BVOP формата : 1
Параметр QPel формата : Нет
Параметр GMC формата : Без точки перехода
Параметр матрицы формата : Default (H.263)
Режим смешивания : Сжатый битовый поток
Идентификатор кодека : DX50
Идентификатор кодека/Подсказка : DivX 5
Продолжительность : 1 ч. 27 м.
Битрейт : 2048 Кбит/сек
Ширина : 704 пикселя
Высота : 400 пикселей
Соотношение сторон : 16:9
Частота кадров : 25,000 кадров/сек
Цветовое пространство : YUV
Субдискретизация насыщенности : 4:2:0
Битовая глубина : 8 бит
Тип развёртки : Прогрессивная
Метод сжатия : С потерями
Бит/(Пиксели*Кадры) : 0.291
Размер потока : 1,24 Гбайт (91%)
Библиотека кодирования : DivX 6.8.5 (UTC 2009-08-20)

Аудио
Идентификатор : 1
Формат : AC-3
Формат/Информация : Audio Coding 3
Расширение режима : CM (complete main)
Параметр Endianness формата : Big
Идентификатор кодека : 2000
Продолжительность : 1 ч. 27 м.
Вид битрейта : Постоянный
Битрейт : 192 Кбит/сек
Каналы : 2 канала
Расположение каналов : Front: L R
Частота : 48,0 КГц
Битовая глубина : 16 бит
Метод сжатия : С потерями
Размер потока : 119 Мбайт (9%)
Выравнивание : Разделение по промежуткам
Продолжительность промежутка : 40 мс. (1,00 видеокадр)
Время предзагрузки промежутка : 500 мс.

Скриншоты

Релиз:
 

Вложения

  • 14,7 KB Просмотры: 1
    Личеров 0
    Сидеров 0
    Файлов 1
    Объем 1,4 GB

Привет!

Мы группа людей которые решили помочь другим в решении их проблем, а так же пользователям с поиском самых свежих и качественных инфопродуктов. За 4 с небольшим месяца мы создали этот форум на который заходят ежедневно тысячи человек и посещаемость постоянно растёт. Мы создали панель лицензирования для защиты PHP скриптов от воровства и SEO панель для мониторинга наших сайтов и выбора верной стратегии их развития. Мы надеемся что то что мы создали пригодится Вам и возможно Вы поможете нам развиваться и совершенствоваться вместе с Вами.

Статистика форума

Темы
411.771
Сообщения
470.512
Пользователи
90.820
Новый пользователь
osmo

Приложения форума для iOS и Android


У ркн там нет власти ;)
Приватные разговоры
Помощь Пользователи
    Вы не присоединились ни к одной комнате.