За последнюю неделю опубликовано 28 новых материалов.
Инструкция новичку Путеводитель по форуму Прокси для Telegram Показать подсказки , это бомба!

Скачать Т-34 (2018) HDTV 1080p от Generalfilm | Полная версия бесплатно через торрент

  • Поучаствуй (в качестве покупателя) в любых пяти совместных покупках (кроме завершённых и "Моментальных") и получи группу "Новичок" навсегда -> ссылка на раздел
  • Получай до 480 рублей за каждого приглашенного пользователя!
    представляем Вам очередное расширение партнерской программы, подробности описаны тут -> ссылка
  • 90% материалов доступно к скачиванию после простой регистрации!
    Если же ты хочешь скачивать материалы без требования оставлять отзывы то получи группу "Новичок", 10 способов повышения описаны тут -> ссылка
  • К сожалению количество битых ссылок растет и мы уже не можем их оперативно восстанавливать поэтому просим помощи у каждого нашего пользователя.
    С сегодняшнего дня, за каждую восстановленную ссылку мы заплатим Вам.
    Подробнее тут -> ссылка
  • Перенесем твои заслуги с другого ресурса!
    Мы понимаем как сложно прокачивать аккаунты на форумах, вроде раскачал аккаунт, а тут появляется ресурс в 100 раз круче но тоже с системой прокачки и снова качать аккаунт...
    Предлагаем вам перенести Ваши заслуги на другом подобном ресурсе к нам.
    Подробности описаны тут -> ссылка
  • Вы можете получать по 2.5% с каждой покупки и продажи на маркете! Подробности в теме Партнёрская программа
Если Вы не хотите скачивать, Вы всегда можетепосмотретьонлайн, просто нажмите кнопку ниже :

Открыть плеер

Torrent_Bot

Торрент-Бот
Бот форума
4 Окт 2016
93
160
20


Т-34

Информация о фильме
Год выпуска: 2018
Страна: Россия
Жанр: Драма, военный, приключения, ВОВ

Перевод: Не требуется
Продолжительность: 02:56:56

Режиссер: Алексей Сидоров
В ролях:



Александр Петров (Николай Ивушкин), Виктор Добронравов (Василенок), Ирина Старшенбаум (Аня), Винценц Кифер (Клаус), Петр Скворцов (Лыков), Семен Трескунов (Тетеря), Антон Богданов (Волчок), Василий Уриевский (Волчок), Василий Буткевич (ординарец Корина), Ярослав Штефан (Макеев, пулеметчик), Кирилл Лопаткин (немецкий пехотинец), Полина Волкова (дочь хозяйки)




Описание:
В ноябре 1941 года в деревне Нефёдовка вчерашний курсант Николай Ивушкин был вынужден принять командование единственным уцелевшим танком и вступить в неравное противостояние с немецкой танковой ротой, приближавшейся к Москве. Силами противника командовал опытный гауптман Клаус Ягер, но это не спасло его подразделение от поражения, хоть самому ему и удалось ранить нашего курсанта.
Летом 1944 года уже пытавшийся совершить несколько побегов Ивушкин попадет в концлагерь в Тюрингии. Там же оказывается и его «старый знакомый» Ягер, который решает использовать навыки Николая для тренировки немецких кадетов. Он распоряжается собрать тому команду и выдать только что прибывшую с фронта новую модель танка Т-34, не зная, что идею побега Ивушкин не оставил.

Рейтинг:


Качество: HDTV 1080p
Формат: MKV
Видео: AVC, 1920x1080 (16:9), 7050 kbps, 25 fps, 0,136 bpp
Аудио: AC3 / 2.0 / 48 kHz / 192 kbps



Релиз от:


ОтчетМедиаИнфо
Общее
Уникальный идентификатор : 244097828371829027371464349732680859267 (0xB7A3881DA1515A56BEBFDF50C9C97E83)
Полное имя : G:GFТ-34.2019.HDTV 1080p.by.HardwareMining.R.G.Generalfilm.mkv
Формат : Matroska
Версия формата : Version 4
Размер файла : 8,89 Гбайт
Продолжительность : 2 ч. 56 м.
Режим общего битрейта : Постоянный
Общий поток : 7 196 Кбит/сек
Дата кодирования : UTC 2020-05-12 13:01:15
Программа кодирования : mkvmerge v7.8.0 ('River Man') 32bit built on Apr 3 2015 12:11:22
Библиотека кодирования : libebml v1.3.1 + libmatroska v1.4.2

Видео
Идентификатор : 1
Формат : AVC
Формат/Информация : Advanced Video Codec
Профиль формата : [email protected]
Настройки формата : CABAC / 3 Ref Frames
Параметр CABAC формата : Да
Параметр RefFrames формата : 3 кадра
Идентификатор кодека : V_MPEG4/ISO/AVC
Продолжительность : 2 ч. 56 м.
Вид битрейта : Постоянный
Битрейт : 7 051 Кбит/сек
Ширина : 1 920 пикселей
Высота : 1 080 пикселей
Соотношение сторон : 16:9
Режим частоты кадров : Постоянный
Частота кадров : 25,000 кадров/сек
Стандарт вещания : PAL
Цветовое пространство : YUV
Субдискретизация насыщенности : 4:2:0
Битовая глубина : 8 бит
Тип развёртки : Прогрессивная
Бит/(Пиксели*Кадры) : 0.136
Размер потока : 8,65 Гбайт (97%)
Default : Да
Forced : Нет
Цветовой диапазон : Limited
Основные цвета : BT.709
Характеристики трансфера : BT.709
Коэффициенты матрицы : BT.709

Аудио
Идентификатор : 2
Формат : AC-3
Формат/Информация : Audio Coding 3
Коммерческое название : Dolby Digital
Идентификатор кодека : A_AC3
Продолжительность : 2 ч. 56 м.
Вид битрейта : Постоянный
Битрейт : 192 Кбит/сек
Каналы : 2 канала
Channel layout : L R
Частота : 48,0 КГц
Частота кадров : 31,250 кадров/сек (1536 SPF)
Метод сжатия : С потерями
Размер потока : 243 Мбайт (3%)
Service kind : Complete Main
Default : Да
Forced : Нет
Скриншоты
 

Вложения

  • 23,2 KB Просмотры: 0
    Личеров 0
    Сидеров 0
    Файлов 1
    Объем 8,9 GB

Привет!

Мы группа людей которые решили помочь другим в решении их проблем, а так же пользователям с поиском самых свежих и качественных инфопродуктов. За 4 с небольшим месяца мы создали этот форум на который заходят ежедневно тысячи человек и посещаемость постоянно растёт. Мы создали панель лицензирования для защиты PHP скриптов от воровства и SEO панель для мониторинга наших сайтов и выбора верной стратегии их развития. Мы надеемся что то что мы создали пригодится Вам и возможно Вы поможете нам развиваться и совершенствоваться вместе с Вами.

Статистика форума

Темы
406.613
Сообщения
465.071
Пользователи
84.480
Новый пользователь
Надя 362469

Приложения форума для iOS и Android


У ркн там нет власти ;)
Приватные разговоры
Помощь Пользователи
    Вы не присоединились ни к одной комнате.