За последнюю неделю опубликовано 30 новых материалов.
Инструкция новичку Путеводитель по форуму Прокси для Telegram Показать подсказки , это бомба!

Скачать Свой среди чужих, чужой среди своих (1974) HDTVRip-AVC бесплатно через торрент

  • Поучаствуй (в качестве покупателя) в любых пяти совместных покупках (кроме завершённых и "Моментальных") и получи группу "Новичок" навсегда -> ссылка на раздел
  • Получай до 480 рублей за каждого приглашенного пользователя!
    представляем Вам очередное расширение партнерской программы, подробности описаны тут -> ссылка
  • 90% материалов доступно к скачиванию после простой регистрации!
    Если же ты хочешь скачивать материалы без требования оставлять отзывы то получи группу "Новичок", 10 способов повышения описаны тут -> ссылка
  • К сожалению количество битых ссылок растет и мы уже не можем их оперативно восстанавливать поэтому просим помощи у каждого нашего пользователя.
    С сегодняшнего дня, за каждую восстановленную ссылку мы заплатим Вам.
    Подробнее тут -> ссылка
  • Перенесем твои заслуги с другого ресурса!
    Мы понимаем как сложно прокачивать аккаунты на форумах, вроде раскачал аккаунт, а тут появляется ресурс в 100 раз круче но тоже с системой прокачки и снова качать аккаунт...
    Предлагаем вам перенести Ваши заслуги на другом подобном ресурсе к нам.
    Подробности описаны тут -> ссылка
  • Вы можете получать по 2.5% с каждой покупки и продажи на маркете! Подробности в теме Партнёрская программа
Если Вы не хотите скачивать, Вы всегда можетепосмотретьонлайн, просто нажмите кнопку ниже :

Открыть плеер

Torrent_Bot

Торрент-Бот
Бот форума
4 Окт 2016
93
160
20

Информация о фильме
Название: Свой среди чужих, чужой среди своих
Год выпуска: 1974
Жанр: Боевик, драма
Режиссёр: Никита Михалков
В ролях: Юрий Богатырёв, Анатолий Солоницын, Сергей Шакуров, Александр Пороховщиков, Николай Пастухов, Александр Кайдановский, Никита Михалков, Николай Засухин, Александр Калягин, Константин Райкин, Борис Галкин, Владимир Точилин

О фильме: 1920-е годы, маленький город на юге России. Гражданская война закончилась, но до полной победы большевиков ещё далеко. Группа бандитов из бывших белых офицеров грабит поезд с золотом, на которое нужно было купить хлеб для голодающих, и пятеро друзей — бывших красных бойцов — вступают с ними в смертельную схватку. Подозрение в предательстве падает на одного из них, и, сбежав от товарищей, он должен вернуть золото, чтобы доказать свою невиновность.



Страна: СССР
Студия: Мосфильм
Продолжительность: 1:32:17
Перевод: Не требуется

Файл
Формат: MKV
Качество: HDTVRip-AVC
Видео: MPEG-4 AVC, 888x648, 3852 Kbps, 25.000 fps
Аудио#1: Russian (AC3, 1 ch, 192 kbps, 16 bits, 48.0 KHz)
Аудио#2: Russian (AC3, 6 ch, 448 kbps, 16 bits, 48.0 KHz)
Субтитры: Русские



Инфо-файл
General
Unique ID : 198785019474510038450350065851324164969 (0x958C9A26833ABFC6A3E92CCDD3B3EB69)
Complete name : Свой среди чужих, чужой среди своих.1974.mkv
Format : Matroska
Format version : Version 2
File size : 2.90 GiB
Duration : 1 h 32 min
Overall bit rate : 4 496 kb/s
Encoded date : UTC 2019-10-17 09:22:27
Writing application : mkvmerge v7.8.0 ('River Man') 32bit built on Mar 27 2015 16:18:02
Writing library : libebml v1.3.1 + libmatroska v1.4.2

Video
ID : 1
Format : AVC
Format/Info : Advanced Video Codec
Format profile : [email protected]
Format settings : CABAC / 14 Ref Frames
Format settings, CABAC : Yes
Format settings, ReFrames : 14 frames
Codec ID : V_MPEG4/ISO/AVC
Duration : 1 h 32 min
Bit rate : 3 852 kb/s
Width : 888 pixels
Height : 648 pixels
Display aspect ratio : 1.370
Frame rate mode : Constant
Frame rate : 25.000 FPS
Color space : YUV
Chroma subsampling : 4:2:0
Bit depth : 8 bits
Scan type : Progressive
Bits/(Pixel*Frame) : 0.268
Stream size : 2.43 GiB (84%)
Title : Свой среди чужих, чужой среди своих.1974
Writing library : x264 core 157 r2867+103 0d6443f t_mod_Custom_2 [[email protected] X86]
Encoding settings : cabac=1 / ref=14 / deblock=1:-2:-2 / analyse=0x3:0x133 / me=umh / subme=11 / psy=1 / fade_compensate=0.00 / psy_rd=1.02:0.15 / mixed_ref=1 / me_range=32 / chroma_me=1 / trellis=2 / 8x8dct=1 / cqm=0 / deadzone=21,11 / fast_pskip=0 / chroma_qp_offset=-3 / threads=12 / lookahead_threads=3 / sliced_threads=0 / nr=0 / decimate=0 / interlaced=0 / bluray_compat=0 / constrained_intra=0 / fgo=0 / bframes=12 / b_pyramid=2 / b_adapt=2 / b_bias=0 / direct=3 / weightb=1 / open_gop=0 / weightp=2 / keyint=250 / keyint_min=25 / scenecut=40 / intra_refresh=0 / rc_lookahead=60 / rc=2pass / mbtree=0 / bitrate=3852 / ratetol=1.0 / qcomp=0.70 / qpmin=0:0:0 / qpmax=69:69:69 / qpstep=4 / cplxblur=20.0 / qblur=0.5 / vbv_maxrate=62500 / vbv_bufsize=78125 / nal_hrd=none / filler=0 / ip_ratio=1.35 / pb_ratio=1.30 / aq=1:0.90 / aq-sensitivity=10.00 / aq-factor=1.00:1.00:1.00 / aq2=0 / aq3=0
Language : Russian
Default : Yes
Forced : No
Color range : Limited
Color primaries : BT.709
Transfer characteristics : BT.709
Matrix coefficients : BT.709

Audio #1
ID : 2
Format : AC-3
Format/Info : Audio Coding 3
Codec ID : A_AC3
Duration : 1 h 32 min
Bit rate mode : Constant
Bit rate : 192 kb/s
Channel(s) : 1 channel
Channel positions : Front: C
Sampling rate : 48.0 kHz
Frame rate : 31.250 FPS (1536 SPF)
Bit depth : 16 bits
Compression mode : Lossy
Stream size : 127 MiB (4%)
Title : AC-3; 16 bits 48 Khz; Mono 192 Kbps; CBR (DVD9 "КП")
Language : Russian
Service kind : Complete Main
Default : Yes
Forced : No

Audio #2
ID : 3
Format : AC-3
Format/Info : Audio Coding 3
Codec ID : A_AC3
Duration : 1 h 32 min
Bit rate mode : Constant
Bit rate : 448 kb/s
Channel(s) : 6 channels
Channel positions : Front: L C R, Side: L R, LFE
Sampling rate : 48.0 kHz
Frame rate : 31.250 FPS (1536 SPF)
Bit depth : 16 bits
Compression mode : Lossy
Stream size : 296 MiB (10%)
Title : AC-3; 16 bits 48 Khz; 5.1ch 448 Kbps; CBR (DVD9 "КП")
Language : Russian
Service kind : Complete Main
Default : No
Forced : No

Text
ID : 4
Format : UTF-8
Codec ID : S_TEXT/UTF8
Codec ID/Info : UTF-8 Plain Text
Title : Субтитры русские
Language : Russian
Default : No
Forced : No

Menu
00:00:00.000 : ru:Титры
00:07:00.120 : ru:Хватит шашкой махать
00:09:27.400 : ru:526 тысяч золотом
00:15:39.090 : ru:А шприц?
00:20:25.240 : ru:Без шума, без охраны
00:27:53.520 : ru:Освободить вагон
00:36:32.200 : ru:Я не пил!
00:43:04.880 : ru:Стой! Тормози!
00:46:20.280 : ru:А вот и я
00:48:20.320 : ru:Нехорошо, Шурик
00:52:54.760 : ru:Спокойно, Ванюкин
00:54:32.880 : ru:Почему шашка справа?
00:57:40.200 : ru:Что случилось?
01:01:03.120 : ru:Шайтан
01:05:56.920 : ru:Опять обожрался
01:10:48.960 : ru:Река!
01:13:19.960 : ru:Солнце в глаза
01:17:14.600 : ru:Ну что, конец?
01:21:56.080 : ru:Лови!
01:23:42.680 : ru:Мне не поверили
 

Вложения

  • 15,4 KB Просмотры: 0
    Личеров 0
    Сидеров 0
    Файлов 1
    Объем 2,9 GB

Привет!

Мы группа людей которые решили помочь другим в решении их проблем, а так же пользователям с поиском самых свежих и качественных инфопродуктов. За 4 с небольшим месяца мы создали этот форум на который заходят ежедневно тысячи человек и посещаемость постоянно растёт. Мы создали панель лицензирования для защиты PHP скриптов от воровства и SEO панель для мониторинга наших сайтов и выбора верной стратегии их развития. Мы надеемся что то что мы создали пригодится Вам и возможно Вы поможете нам развиваться и совершенствоваться вместе с Вами.

Статистика форума

Темы
406.605
Сообщения
465.028
Пользователи
84.390
Новый пользователь
князь владимир

Приложения форума для iOS и Android


У ркн там нет власти ;)
Приватные разговоры
Помощь Пользователи
    Вы не присоединились ни к одной комнате.