За последнюю неделю опубликовано 90 новых материалов.
Инструкция новичку Путеводитель по форуму Прокси для Telegram Показать подсказки , это бомба!

Скачать Свой среди чужих, чужой среди своих (1974) HDDVDRip 720p от ExKinoRay бесплатно через торрент

  • Поучаствуй (в качестве покупателя) в любых пяти совместных покупках (кроме завершённых и "Моментальных") и получи группу "Новичок" навсегда -> ссылка на раздел
  • Получай до 480 рублей за каждого приглашенного пользователя!
    представляем Вам очередное расширение партнерской программы, подробности описаны тут -> ссылка
  • 90% материалов доступно к скачиванию после простой регистрации!
    Если же ты хочешь скачивать материалы без требования оставлять отзывы то получи группу "Новичок", 10 способов повышения описаны тут -> ссылка
  • К сожалению количество битых ссылок растет и мы уже не можем их оперативно восстанавливать поэтому просим помощи у каждого нашего пользователя.
    С сегодняшнего дня, за каждую восстановленную ссылку мы заплатим Вам.
    Подробнее тут -> ссылка
  • Перенесем твои заслуги с другого ресурса!
    Мы понимаем как сложно прокачивать аккаунты на форумах, вроде раскачал аккаунт, а тут появляется ресурс в 100 раз круче но тоже с системой прокачки и снова качать аккаунт...
    Предлагаем вам перенести Ваши заслуги на другом подобном ресурсе к нам.
    Подробности описаны тут -> ссылка
  • Вы можете получать по 2.5% с каждой покупки и продажи на маркете! Подробности в теме Партнёрская программа
Если Вы не хотите скачивать, Вы всегда можетепосмотретьонлайн, просто нажмите кнопку ниже :

Открыть плеер

Torrent_Bot

Торрент-Бот
Бот форума
4 Окт 2016
79
194
20
Информация о фильме
Название: Свой среди чужих, чужой среди своих
Год выхода: 1974
Жанр: Военный, драма, приключения, экранизация
Режиссер: Никита Михалков
В ролях: Юрий Богатырёв, Анатолий Солоницын, Сергей Шакуров, Александр Пороховщиков, Николай Пастухов, Александр Кайдановский, Никита Михалков, Николай Засухин, Александр Калягин, Константин Райкин, Екатерина Шадрина, Михаил Кислов, Виталий Комиссаров, Александр Яковлев, Анатолий Борисов, Геннадий Крашенинников, Михаил Чигарев, Галина Микеладзе, Александр Адабашьян, Вадим Вильский, Борис Галкин

О фильме:
По повести Эдуарда Володарского и Никиты Михалкова «Красное золото».
Действие этого психологического "вестерна" происходит в 20-е годы в маленьком губернском городке на юге России. Гражданская война кончилась, но до полной победы большевиков еще далеко. Группа бандитов из бывших белых офицеров грабит поезд с золотом, на которое нужно было купить хлеб для голодающих, и пятеро друзей, бывших красных бойцов, вступают с ними в смертельную схватку. Получается так, что подозрение в предательстве падает на одного из них (первая роль Богатырева в полнометражном кино), и, сбежав от товарищей, он один должен вернуть золото, чтобы доказать свою невиновность.

Страна: СССР
Продолжительность: 01:32:02
Перевод: не требуется

Файл
Кодек: x264
Качество: HDDVDRip 720p - Custom
Видео: MPEG-4 AVC, 4950 Кбит/с, 958x720
Звук: AC3, 6 ch, 448 Кбит/с, AC3, 1 ch, 192 Кбит/с
Субтитры: Русские

Скриншоты
7b9ff1ed891fce2771455bab6825e059.jpeg700f12673bad6938f2f95b9a3e860551.jpegbc7644f82620503cba26295257e82e12.jpegff3a4409ee59f2de5a560c0755d4f5f9.jpeg2e5dbcb0d80cb930a2708ff9e09afe5e.jpegdeff9faa9e4da0cc9b0479d647da8408.jpeg44a56c52f72b663eaa9629c028d9cc90.jpeg2687250772a5e36451559115e00e80bd.jpegcf5db7a47f9da72735fe7ecc5868167a.jpegf21025107bb719a8ceec254e94de8f41.jpeg961e3128134f94659634c8f0037e49e9.jpeg5beb6cb79cdef61a9ff45c70a7ba263c.jpeg2f7b0366ebf711559b45aee3868bb274.jpeg6b5131ffcc44181c01368a814649a5f0.jpeg099d02f62446154b12e3488260f801b4.jpegc7d23b3273ebe94a9d34ac4b3aee7969.jpeg4677109c3c7094c928967e98848dd972.jpeg8abf777560a5ba0d3f4329c28e4e1b9f.jpeg52c506bb0cf8021a1876e1b22069a18b.jpeg3ba94bd2779d7d0dd049622660d0c92c.jpeg048a556f5cccad232e5e2d25e9db1026.jpega22aea1d1c7740e39da9fc85b4b12f52.jpeg151901b5d0b08c3e2aa6c3aa2001e90f.jpegbce8ad08fe406aeeaced238ca26943b6.jpege99c8f63c66d63d941a199c14ebf456a.jpeg
Медиа-Инфо
raw [info]: 958x720p 1:1 @ 25/1 fps (cfr)
x264 [info]: using SAR=1/1
x264 [info]: using cpu capabilities: MMX2 SSE2Fast SSSE3 SSE4.2 AVX
x264 [info]: profile High, level 4.1
x264 [info]: frame I:773 Avg QP:16.13 size:129531
x264 [info]: frame P:39810 Avg QP:19.33 size: 51914
x264 [info]: frame B:97356 Avg QP:21.99 size: 12815
===========================================================================================================
Общее
Уникальный идентификатор : 202313151079092263472049218027933690983 (0x98341877F950C53B95E69C44AA486C67)
Полное имя : D:Свой среди чужих_1974-HDDVDRip-720p.mkv
Формат : Matroska
Версия формата : Version 2
Размер файла : 3,59 Гбайт
Продолжительность : 1 ч. 32 м.
Общий поток : 5588 Кбит/сек
Дата кодирования : UTC 2015-10-28 18:48:41
Программа кодирования : mkvmerge v5.8.0 ('No Sleep / Pillow') built on Sep 2 2012 15:37:04
Библиотека кодирования : libebml v1.2.3 + libmatroska v1.3.0

Видео
Идентификатор : 1
Формат : AVC
Формат/Информация : Advanced Video Codec
Профиль формата : [email protected]
Параметр CABAC формата : Да
Параметр ReFrames формата : 12 кадров
Идентификатор кодека : V_MPEG4/ISO/AVC
Продолжительность : 1 ч. 32 м.
Битрейт : 4950 Кбит/сек
Ширина : 958 пикселей
Высота : 720 пикселей
Соотношение сторон : 4:3
Режим частоты кадров : Постоянный
Частота кадров : 25,000 кадров/сек
Цветовое пространство : YUV
Субдискретизация насыщенности : 4:2:0
Битовая глубина : 8 бит
Тип развёртки : Прогрессивная
Бит/(Пиксели*Кадры) : 0.287
Размер потока : 3,11 Гбайт (87%)
Библиотека кодирования : x264 core 146 r2538 121396c
Настройки программы : cabac=1 / ref=12 / deblock=1:-3:-2 / analyse=0x3:0x113 / me=umh / subme=10 / psy=1 / psy_rd=0.75:0.10 / mixed_ref=1 / me_range=32 / chroma_me=1 / trellis=2 / 8x8dct=1 / cqm=0 / deadzone=21,11 / fast_pskip=0 / chroma_qp_offset=-3 / threads=12 / lookahead_threads=2 / sliced_threads=0 / nr=0 / decimate=0 / interlaced=0 / bluray_compat=0 / constrained_intra=0 / bframes=8 / b_pyramid=2 / b_adapt=2 / b_bias=0 / direct=3 / weightb=1 / open_gop=0 / weightp=2 / keyint=250 / keyint_min=25 / scenecut=40 / intra_refresh=0 / rc_lookahead=40 / rc=2pass / mbtree=1 / bitrate=4950 / ratetol=1.0 / qcomp=0.65 / qpmin=0 / qpmax=39 / qpstep=4 / cplxblur=20.0 / qblur=0.5 / vbv_maxrate=50000 / vbv_bufsize=62500 / nal_hrd=none / filler=0 / ip_ratio=1.40 / aq=1:0.80
Язык : English
Default : Да
Forced : Нет
Цветовой диапазон : Limited
Основные цвета : BT.709
Характеристики трансфера : BT.709
Коэффициенты матрицы : BT.709

Аудио #1
Идентификатор : 2
Формат : AC-3
Формат/Информация : Audio Coding 3
Расширение режима : CM (complete main)
Параметр Endianness формата : Big
Идентификатор кодека : A_AC3
Продолжительность : 1 ч. 32 м.
Вид битрейта : Постоянный
Битрейт : 448 Кбит/сек
Каналы : 6 каналов
Расположение каналов : Front: L C R, Side: L R, LFE
Частота : 48,0 КГц
Метод сжатия : С потерями
Задержка видео : 104 мс.
Размер потока : 295 Мбайт (8%)
Язык : Russian
Default : Да
Forced : Нет

Аудио #2
Идентификатор : 3
Формат : AC-3
Формат/Информация : Audio Coding 3
Расширение режима : CM (complete main)
Параметр Endianness формата : Big
Идентификатор кодека : A_AC3
Продолжительность : 1 ч. 32 м.
Вид битрейта : Постоянный
Битрейт : 192 Кбит/сек
Каналы : 1 канал
Расположение каналов : Front: C
Частота : 48,0 КГц
Метод сжатия : С потерями
Задержка видео : 4 с. 700 мс.
Размер потока : 126 Мбайт (3%)
Язык : Russian
Default : Нет
Forced : Нет

Текст
Идентификатор : 4
Формат : UTF-8
Идентификатор кодека : S_TEXT/UTF8
Идентификатор кодека/Информация : UTF-8 Plain Text
Язык : Russian
Default : Нет
Forced : Нет
Релиз от: 9c7356b8985f82cb2872510658fe0b76.gif
Автор релиза:
 

Вложения

Привет!

Мы группа людей которые решили помочь другим в решении их проблем, а так же пользователям с поиском самых свежих и качественных инфопродуктов. За 4 с небольшим месяца мы создали этот форум на который заходят ежедневно тысячи человек и посещаемость постоянно растёт. Мы создали панель лицензирования для защиты PHP скриптов от воровства и SEO панель для мониторинга наших сайтов и выбора верной стратегии их развития. Мы надеемся что то что мы создали пригодится Вам и возможно Вы поможете нам развиваться и совершенствоваться вместе с Вами.

Статистика форума

Темы
414.370
Сообщения
475.396
Пользователи
96.561
Новый пользователь
starushka

Приложения форума для iOS и Android


У ркн там нет власти ;)
Приватные разговоры
Помощь Пользователи
    Вы не присоединились ни к одной комнате.