За последнюю неделю опубликовано 89 новых материалов.
Инструкция новичку Путеводитель по форуму Прокси для Telegram Показать подсказки , это бомба!

Скачать Свой среди чужих, чужой среди своих (1974) DVDRip бесплатно через торрент

  • Поучаствуй (в качестве покупателя) в любых пяти совместных покупках (кроме завершённых и "Моментальных") и получи группу "Новичок" навсегда -> ссылка на раздел
  • Получай до 480 рублей за каждого приглашенного пользователя!
    представляем Вам очередное расширение партнерской программы, подробности описаны тут -> ссылка
  • 90% материалов доступно к скачиванию после простой регистрации!
    Если же ты хочешь скачивать материалы без требования оставлять отзывы то получи группу "Новичок", 10 способов повышения описаны тут -> ссылка
  • К сожалению количество битых ссылок растет и мы уже не можем их оперативно восстанавливать поэтому просим помощи у каждого нашего пользователя.
    С сегодняшнего дня, за каждую восстановленную ссылку мы заплатим Вам.
    Подробнее тут -> ссылка
  • Перенесем твои заслуги с другого ресурса!
    Мы понимаем как сложно прокачивать аккаунты на форумах, вроде раскачал аккаунт, а тут появляется ресурс в 100 раз круче но тоже с системой прокачки и снова качать аккаунт...
    Предлагаем вам перенести Ваши заслуги на другом подобном ресурсе к нам.
    Подробности описаны тут -> ссылка
  • Вы можете получать по 2.5% с каждой покупки и продажи на маркете! Подробности в теме Партнёрская программа
Если Вы не хотите скачивать, Вы всегда можетепосмотретьонлайн, просто нажмите кнопку ниже :

Открыть плеер

Torrent_Bot

Торрент-Бот
Бот форума
4 Окт 2016
79
194
20
Страна: СССР
Жанр: боевик, драма
Год выпуска: 1974

Продолжительность: 01:31:57


Перевод: Не требуется

Режиссер: Никита Михалков

В ролях: Юрий Богатырев(Шилов), Александр Кайдановский(Лемке), Александр Калягин(Ванюкин), Сергей Шакуров(Забелин), Александр Пороховщиков(Кунгаров), Анатолий Солоницын(Сарычев), Александр Адабашьян(помощник Есаула), Николай Засухин, Николай Пастухов, Никита Михалков(Есаул), Константин Райкин(Каюм), Михаил Кислов


Описание: Действие этого психологического «вестерна» происходит в 20-е годы в маленьком губернском городке на юге России. Гражданская война кончилась, но до полной победы большевиков еще далеко. Группа бандитов из бывших белых офицеров грабит поезд с золотом, на которое нужно было купить хлеб для голодающих, и пятеро друзей, бывших красных бойцов, вступают с ними в смертельную схватку.
Получается так, что подозрение в предательстве падает на одного из них (первая роль Богатырева в полнометражном кино), и, сбежав от товарищей, он один должен вернуть золото, чтобы доказать свою невиновность.


9bf4d3a94fc297c5bf110c7e64a080eb.gif
imdb.com: 7.30 (1 192)


Качество: DVDRip | sample
Контейнер: AVI
Исходник: DVD9 | Крупный план - полная реставрация
Видео: XviD, 704x528 (4:3), 1800 kbps, 25 fps, 0,194 bpp
Аудио: AC3 / 5.1 / 48 kHz / 448 kbps / 16 bit


Скриншоты
98bd191b0d42593b6d5ac549ff731bcb.jpeg43afa047256da7060f8121c3456f2435.jpeg74ed511e3eb3f0d7951ac97469d3907f.jpeg23cc6ecc9316cbf28b61c5715c684e88.jpeg28868c1dedb3045ec5db500ccea419e4.jpegaf7d2396c840cc9219d20ca3f760790d.jpeg8994c238482aeda3df0277f627a8b7f2.jpeg1013220e59f18b8e224636025c116e75.jpeg
Media Info
General
Complete name : E:ФильмыSvoy_sredi_chuzhih_chuzhoj_sredi_svoih_DVDRip_1974_[youtracker].avi
Format : AVI
Format/Info : Audio Video Interleave
File size : 1.45 GiB
Duration : 1h 31mn
Overall bit rate : 2 258 Kbps
Writing application : VirtualDubMod 1.5.10.3 | www.virtualdub-fr.org || (build 2550/release)
Writing library : VirtualDubMod build 2550/release

Video
ID : 0
Format : MPEG-4 Visual
Format profile : Advanced [email protected]
Format settings, BVOP : 2
Format settings, QPel : No
Format settings, GMC : No warppoints
Format settings, Matrix : Custom
Codec ID : XVID
Codec ID/Hint : XviD
Duration : 1h 31mn
Bit rate : 1 800 Kbps
Width : 704 pixels
Height : 528 pixels
Display aspect ratio : 4:3
Frame rate : 25.000 fps
Color space : YUV
Chroma subsampling : 4:2:0
Bit depth : 8 bits
Scan type : Progressive
Compression mode : Lossy
Bits/(Pixel*Frame) : 0.194
Stream size : 1.16 GiB (80%)
Writing library : XviD 65

Audio
ID : 1
Format : AC-3
Format/Info : Audio Coding 3
Mode extension : CM (complete main)
Codec ID : 2000
Duration : 1h 31mn
Bit rate mode : Constant
Bit rate : 448 Kbps
Channel(s) : 6 channels
Channel positions : Front: L C R, Side: L R, LFE
Sampling rate : 48.0 KHz
Bit depth : 16 bits
Compression mode : Lossy
Stream size : 295 MiB (20%)
Alignment : Split accross interleaves
Interleave, duration : 40 ms (1.00 video frame)
Interleave, preload duration : 500 ms
 

Вложения

  • 15,8 KB Просмотры: 1
    Личеров 0
    Сидеров 0
    Файлов 1
    Объем 1,5 GB

Привет!

Мы группа людей которые решили помочь другим в решении их проблем, а так же пользователям с поиском самых свежих и качественных инфопродуктов. За 4 с небольшим месяца мы создали этот форум на который заходят ежедневно тысячи человек и посещаемость постоянно растёт. Мы создали панель лицензирования для защиты PHP скриптов от воровства и SEO панель для мониторинга наших сайтов и выбора верной стратегии их развития. Мы надеемся что то что мы создали пригодится Вам и возможно Вы поможете нам развиваться и совершенствоваться вместе с Вами.

Статистика форума

Темы
414.370
Сообщения
475.396
Пользователи
96.561
Новый пользователь
starushka

Приложения форума для iOS и Android


У ркн там нет власти ;)
Приватные разговоры
Помощь Пользователи
    Вы не присоединились ни к одной комнате.