За последнюю неделю опубликовано 64 новых материалов.
Инструкция новичку Путеводитель по форуму Прокси для Telegram Показать подсказки , это бомба!

Скачать Связь / Coherence (2013) HDRip | КПК | P, L | iTunes бесплатно через торрент

  • Поучаствуй (в качестве покупателя) в любых пяти совместных покупках (кроме завершённых и "Моментальных") и получи группу "Новичок" навсегда -> ссылка на раздел
  • Получай до 480 рублей за каждого приглашенного пользователя!
    представляем Вам очередное расширение партнерской программы, подробности описаны тут -> ссылка
  • 90% материалов доступно к скачиванию после простой регистрации!
    Если же ты хочешь скачивать материалы без требования оставлять отзывы то получи группу "Новичок", 10 способов повышения описаны тут -> ссылка
  • К сожалению количество битых ссылок растет и мы уже не можем их оперативно восстанавливать поэтому просим помощи у каждого нашего пользователя.
    С сегодняшнего дня, за каждую восстановленную ссылку мы заплатим Вам.
    Подробнее тут -> ссылка
  • Перенесем твои заслуги с другого ресурса!
    Мы понимаем как сложно прокачивать аккаунты на форумах, вроде раскачал аккаунт, а тут появляется ресурс в 100 раз круче но тоже с системой прокачки и снова качать аккаунт...
    Предлагаем вам перенести Ваши заслуги на другом подобном ресурсе к нам.
    Подробности описаны тут -> ссылка
  • Вы можете получать по 2.5% с каждой покупки и продажи на маркете! Подробности в теме Партнёрская программа
Если Вы не хотите скачивать, Вы всегда можетепосмотретьонлайн, просто нажмите кнопку ниже :

Открыть плеер

Torrent_Bot

Торрент-Бот
Бот форума
4 Окт 2016
92
160
20



Информация о фильме
Название: Связь
Оригинальное название: Coherence
Год выхода: 2013
Жанр: Фантастика, триллер, детектив
Режиссер: Джеймс Уорд Биркит
В ролях: Эмили Бальдони, Мори Стерлинг, Николас Брендон, Лорин Скафария, Элизабет Грэйсен, Хьюго Армстронг, Алекс Манугян, Лорен Мехер, Акилла Золл

О фильме:
В ночь падения кометы на званом ужине собираются восемь друзей. Наслаждаясь общением, они даже не подозревают о грядущих изменениях и во время непринужденной беседы становятся участниками цепи странных и загадочных событий. Игры с прошлым, настоящим и будущим.



Страна: США, Великобритания
Студия: Bellanova Films, Ugly Duckling Films
Продолжительность: 01:27:52
Перевод: Профессиональный (многоголосый, закадровый), Любительский (многоголосый, закадровый)

Файл
Формат: MP4
Качество: HDRip (исх. BDRip 720p | K_A_E)
Видео: AVC, 640x274 (2.35:1), at 24.000 fps, 500 kb/s
Аудио #1: AAC LC SBR, 48.0 KHz, 2 ch, 64 kb/s | MVO - iTunes
Аудио #2: AAC LC SBR, 48.0 KHz, 2 ch, 64 kb/s | MVO - Pazl Voice
Субтитры: Нет

MediaInfo
General
Complete name : Coherence.2013.MVOx2.HDRip.mp4
Format : MPEG-4
Format profile : Base Media
Codec ID : isom (isom)
File size : 397 MiB
Duration : 1 h 27 min
Overall bit rate mode : Variable
Overall bit rate : 632 kb/s
Encoded date : UTC 2020-08-01 11:45:11
Tagged date : UTC 2020-08-01 11:45:11
Writing application : Yamb 2.1.0.0 [http://yamb.unite-video.com]

Video
ID : 1
Format : AVC
Format/Info : Advanced Video Codec
Format profile : [email protected]
Format settings : CABAC / 14 Ref Frames
Format settings, CABAC : Yes
Format settings, RefFrames : 14 frames
Codec ID : avc1
Codec ID/Info : Advanced Video Coding
Duration : 1 h 27 min
Bit rate : 500 kb/s
Maximum bit rate : 1 784 kb/s
Width : 640 pixels
Height : 274 pixels
Display aspect ratio : 2.35:1
Frame rate mode : Constant
Frame rate : 24.000 FPS
Color space : YUV
Chroma subsampling : 4:2:0
Bit depth : 8 bits
Scan type : Progressive
Bits/(Pixel*Frame) : 0.119
Stream size : 314 MiB (79%)
Title : Coherence
Writing library : x264 core 152 r2851 ba24899
Encoding settings : cabac=1 / ref=14 / deblock=1:-2:-2 / analyse=0x3:0x113 / me=umh / subme=10 / psy=1 / psy_rd=0.95:0.05 / mixed_ref=1 / me_range=32 / chroma_me=1 / trellis=2 / 8x8dct=1 / cqm=0 / deadzone=21,11 / fast_pskip=0 / chroma_qp_offset=-3 / threads=6 / lookahead_threads=1 / sliced_threads=0 / nr=0 / decimate=0 / interlaced=0 / bluray_compat=0 / constrained_intra=0 / bframes=16 / b_pyramid=2 / b_adapt=2 / b_bias=0 / direct=3 / weightb=1 / open_gop=0 / weightp=2 / keyint=250 / keyint_min=24 / scenecut=40 / intra_refresh=0 / rc=2pass / mbtree=0 / bitrate=500 / ratetol=1.0 / qcomp=0.65 / qpmin=0 / qpmax=69 / qpstep=4 / cplxblur=20.0 / qblur=0.5 / ip_ratio=1.40 / pb_ratio=1.30 / aq=1:1.00
Language : English
Encoded date : UTC 2020-06-03 02:19:41
Tagged date : UTC 2020-08-01 11:45:41
Codec configuration box : avcC

Audio #1
ID : 2
Format : AAC LC SBR
Format/Info : Advanced Audio Codec Low Complexity with Spectral Band Replication
Commercial name : HE-AAC
Format settings : Explicit
Codec ID : mp4a-40-2
Duration : 1 h 27 min
Bit rate mode : Variable
Bit rate : 64.0 kb/s
Maximum bit rate : 71.8 kb/s
Channel(s) : 2 channels
Channel layout : L R
Sampling rate : 48.0 kHz
Frame rate : 23.438 FPS (2048 SPF)
Compression mode : Lossy
Stream size : 40.2 MiB (10%)
Title : MVO | iTunes
Language : Russian
Encoded date : UTC 2020-08-01 11:45:33
Tagged date : UTC 2020-08-01 11:45:41

Audio #2
ID : 3
Format : AAC LC SBR
Format/Info : Advanced Audio Codec Low Complexity with Spectral Band Replication
Commercial name : HE-AAC
Format settings : Explicit
Codec ID : mp4a-40-2
Duration : 1 h 27 min
Bit rate mode : Variable
Bit rate : 64.0 kb/s
Maximum bit rate : 70.8 kb/s
Channel(s) : 2 channels
Channel layout : L R
Sampling rate : 48.0 kHz
Frame rate : 23.438 FPS (2048 SPF)
Compression mode : Lossy
Stream size : 40.2 MiB (10%)
Title : MVO - Pazl Voice
Language : Russian
Encoded date : UTC 2020-08-01 11:45:38
Tagged date : UTC 2020-08-01 11:45:41
Скриншоты
 

Вложения

  • 16,5 KB Просмотры: 0
    Личеров 0
    Сидеров 0
    Файлов 1
    Объем 397 MB

Привет!

Мы группа людей которые решили помочь другим в решении их проблем, а так же пользователям с поиском самых свежих и качественных инфопродуктов. За 4 с небольшим месяца мы создали этот форум на который заходят ежедневно тысячи человек и посещаемость постоянно растёт. Мы создали панель лицензирования для защиты PHP скриптов от воровства и SEO панель для мониторинга наших сайтов и выбора верной стратегии их развития. Мы надеемся что то что мы создали пригодится Вам и возможно Вы поможете нам развиваться и совершенствоваться вместе с Вами.

Статистика форума

Темы
406.657
Сообщения
465.102
Пользователи
84.681
Новый пользователь
natalymak

Приложения форума для iOS и Android


У ркн там нет власти ;)
Приватные разговоры
Помощь Пользователи
    Вы не присоединились ни к одной комнате.