За последнюю неделю опубликовано 62 новых материалов.
Инструкция новичку Путеводитель по форуму Прокси для Telegram Показать подсказки , это бомба!

Скачать Святой Винсент / St. Vincent (2014) BDRip-AVC | D, P бесплатно через торрент

  • Поучаствуй (в качестве покупателя) в любых пяти совместных покупках (кроме завершённых и "Моментальных") и получи группу "Новичок" навсегда -> ссылка на раздел
  • Получай до 480 рублей за каждого приглашенного пользователя!
    представляем Вам очередное расширение партнерской программы, подробности описаны тут -> ссылка
  • 90% материалов доступно к скачиванию после простой регистрации!
    Если же ты хочешь скачивать материалы без требования оставлять отзывы то получи группу "Новичок", 10 способов повышения описаны тут -> ссылка
  • К сожалению количество битых ссылок растет и мы уже не можем их оперативно восстанавливать поэтому просим помощи у каждого нашего пользователя.
    С сегодняшнего дня, за каждую восстановленную ссылку мы заплатим Вам.
    Подробнее тут -> ссылка
  • Перенесем твои заслуги с другого ресурса!
    Мы понимаем как сложно прокачивать аккаунты на форумах, вроде раскачал аккаунт, а тут появляется ресурс в 100 раз круче но тоже с системой прокачки и снова качать аккаунт...
    Предлагаем вам перенести Ваши заслуги на другом подобном ресурсе к нам.
    Подробности описаны тут -> ссылка
  • Вы можете получать по 2.5% с каждой покупки и продажи на маркете! Подробности в теме Партнёрская программа
Если Вы не хотите скачивать, Вы всегда можетепосмотретьонлайн, просто нажмите кнопку ниже :

Открыть плеер

Torrent_Bot

Торрент-Бот
Бот форума
4 Окт 2016
92
160
20

Информация о фильме
Название: Святой Винсент
Оригинальное название: St. Vincent
Год выхода: 2014
Жанр: Драма, комедия
Режиссер: Тед Мелфи
В ролях: Билл Мюррей, Мелисса МакКарти, Наоми Уоттс, Крис О`Дауд, Терренс Ховард, Джейден Мартелл, Кимберли Куинн, Ленни Венито, Нэйт Корддр, Дарио Бароссо

О фильме:
Фильм расскажет о 12-летнем мальчике, который, переживая развод своих родителей, заводит дружбу с пожилым соседом, пьющим ветераном войны, любящим азартные игры и проституток. И вот этот нелюдимый и далеко не положительный с виду человек становится наставником парнишки.



Страна: США
Студия: Chernin Entertainment, Crescendo Productions, Goldenlight Films, The Weinstein Company LLC
Продолжительность: 01:42:26
Перевод: Дублированный, профессиональный (многоголосый, закадровый)
Субтитры: Russian (platonych), English

Файл
Формат: Matroska
Качество: BDRip-AVC [Blu-ray 1080p]
Видео: 1024x554 at 23.976 fps, [email protected], ~2663 kbps, 0.196 bpp
Aудио#1: AC3, 2 (L,R) ch, ~192.00 kbps -|DUB, т/к Супер|
Aудио#2: AC3, 2 (L,R) ch, ~192.00 kbps -|MVO, т/к Кинопоказ|
Формат субтитров: softsub (SRT)

***Релиз от:-=DoMiNo=-

M/I
x264 [info]: frame I:1358 Avg QP:15.73 size: 94035
x264 [info]: frame P:30150 Avg QP:19.32 size: 29903
x264 [info]: frame B:115852 Avg QP:20.95 size: 8774
x264 [info]: consecutive B-frames: 2.1% 2.5% 5.3% 19.4% 16.0% 32.5% 8.3% 8.7% 2.2% 0.7% 0.7% 1.4% 0.3%

General
Format : Matroska
Format version : Version 4
File size : 2.18 GiB
Duration : 1 h 42 min
Overall bit rate : 3 049 kb/s
Movie name : Святой Винсент.(2014).BDRip-AVC.[-=DoMiNo=-] / Святой Винсент / St. Vincent (2014)
Encoded date : UTC 2020-09-01 14:01:52
Writing application : mkvmerge v49.0.0 ('Sick Of Losing Soulmates') 64-bit
Writing library : libebml v1.4.0 + libmatroska v1.6.1
Cover : Yes
Attachments : Cover.jpg / Cover 2.jpg

Video
ID : 1
Format : AVC
Format/Info : Advanced Video Codec
Format profile : [email protected]
Format settings : CABAC / 12 Ref Frames
Format settings, CABAC : Yes
Format settings, Reference : 12 frames
Codec ID : V_MPEG4/ISO/AVC
Duration : 1 h 42 min
Bit rate : 2 663 kb/s
Width : 1 024 pixels
Height : 554 pixels
Display aspect ratio : 1.85:1
Frame rate mode : Constant
Frame rate : 23.976 (24000/1001) FPS
Color space : YUV
Chroma subsampling : 4:2:0
Bit depth : 8 bits
Scan type : Progressive
Bits/(Pixel*Frame) : 0.196
Stream size : 1.91 GiB (87%)
Title : -=DoMiNo=-
Writing library : x264 core 161 r3018 db0d417
Encoding settings : cabac=1 / ref=12 / deblock=1:-3:-3 / analyse=0x3:0x133 / me=umh / subme=11 / psy=1 / psy_rd=1.00:0.00 / mixed_ref=1 / me_range=32 / chroma_me=1 / trellis=2 / 8x8dct=1 / cqm=0 / deadzone=21,11 / fast_pskip=0 / chroma_qp_offset=-2 / threads=6 / lookahead_threads=1 / sliced_threads=0 / nr=0 / decimate=0 / interlaced=0 / bluray_compat=0 / constrained_intra=0 / bframes=12 / b_pyramid=2 / b_adapt=2 / b_bias=0 / direct=3 / weightb=1 / open_gop=0 / weightp=2 / keyint=250 / keyint_min=23 / scenecut=40 / intra_refresh=0 / rc_lookahead=60 / rc=2pass / mbtree=0 / bitrate=2663 / ratetol=1.0 / qcomp=0.70 / qpmin=0 / qpmax=69 / qpstep=4 / cplxblur=20.0 / qblur=0.5 / vbv_maxrate=50000 / vbv_bufsize=62500 / nal_hrd=none / filler=0 / ip_ratio=1.40 / pb_ratio=1.30 / aq=3:0.80
Language : English
Default : Yes
Forced : No
Color range : Limited
Color primaries : BT.709
Transfer characteristics : BT.709
Matrix coefficients : BT.709

Audio #1
ID : 2
Format : AC-3
Format/Info : Audio Coding 3
Commercial name : Dolby Digital
Codec ID : A_AC3
Duration : 1 h 42 min
Bit rate mode : Constant
Bit rate : 192 kb/s
Channel(s) : 2 channels
Channel layout : L R
Sampling rate : 48.0 kHz
Frame rate : 31.250 FPS (1536 SPF)
Compression mode : Lossy
Stream size : 141 MiB (6%)
Title : DUB_[т/к Супер]
Language : Russian
Service kind : Complete Main
Default : Yes
Forced : No

Audio #2
ID : 3
Format : AC-3
Format/Info : Audio Coding 3
Commercial name : Dolby Digital
Codec ID : A_AC3
Duration : 1 h 42 min
Bit rate mode : Constant
Bit rate : 192 kb/s
Channel(s) : 2 channels
Channel layout : L R
Sampling rate : 48.0 kHz
Frame rate : 31.250 FPS (1536 SPF)
Compression mode : Lossy
Stream size : 141 MiB (6%)
Title : MVO_[т/к Кинопоказ]
Language : Russian
Service kind : Complete Main
Default : No
Forced : No

Text #1
ID : 4
Format : UTF-8
Codec ID : S_TEXT/UTF8
Codec ID/Info : UTF-8 Plain Text
Duration : 1 h 37 min
Bit rate : 106 b/s
Count of elements : 1484
Stream size : 76.3 KiB (0%)
Title : Full_[platonych]
Language : Russian
Default : No
Forced : No

Text #2
ID : 5
Format : UTF-8
Codec ID : S_TEXT/UTF8
Codec ID/Info : UTF-8 Plain Text
Duration : 1 h 41 min
Bit rate : 64 b/s
Count of elements : 1560
Stream size : 47.9 KiB (0%)
Title : Full
Language : English
Default : No
Forced : No

Menu
00:00:00.000 : en:00:00:00.000
00:07:49.010 : en:00:07:49.010
00:14:19.150 : en:00:14:19.150
00:18:52.006 : en:00:18:52.006
00:25:53.093 : en:00:25:53.093
00:33:26.171 : en:00:33:26.171
00:41:03.920 : en:00:41:03.920
00:47:41.150 : en:00:47:41.150
00:56:05.320 : en:00:56:05.320
01:03:48.616 : en:01:03:48.616
01:09:43.262 : en:01:09:43.262
01:14:10.404 : en:01:14:10.404
01:20:18.063 : en:01:20:18.063
01:28:48.281 : en:01:28:48.281
01:34:46.055 : en:01:34:46.055
01:37:19.459 : en:01:37:19.459
Скриншоты
 

Вложения

  • 88,6 KB Просмотры: 0
    Личеров 0
    Сидеров 0
    Файлов 1
    Объем 2,2 GB

Привет!

Мы группа людей которые решили помочь другим в решении их проблем, а так же пользователям с поиском самых свежих и качественных инфопродуктов. За 4 с небольшим месяца мы создали этот форум на который заходят ежедневно тысячи человек и посещаемость постоянно растёт. Мы создали панель лицензирования для защиты PHP скриптов от воровства и SEO панель для мониторинга наших сайтов и выбора верной стратегии их развития. Мы надеемся что то что мы создали пригодится Вам и возможно Вы поможете нам развиваться и совершенствоваться вместе с Вами.

Статистика форума

Темы
406.657
Сообщения
465.114
Пользователи
84.665
Новый пользователь
koleg

Приложения форума для iOS и Android


У ркн там нет власти ;)
Приватные разговоры
Помощь Пользователи
    Вы не присоединились ни к одной комнате.