За последнюю неделю опубликовано 59 новых материалов.
Инструкция новичку Путеводитель по форуму Прокси для Telegram Показать подсказки , это бомба!

Скачать Святой Винсент / St. Vincent (2014) BDRip 720p от ExKinoRay | D, P, L1 бесплатно через торрент

  • Поучаствуй (в качестве покупателя) в любых пяти совместных покупках (кроме завершённых и "Моментальных") и получи группу "Новичок" навсегда -> ссылка на раздел
  • Получай до 480 рублей за каждого приглашенного пользователя!
    представляем Вам очередное расширение партнерской программы, подробности описаны тут -> ссылка
  • 90% материалов доступно к скачиванию после простой регистрации!
    Если же ты хочешь скачивать материалы без требования оставлять отзывы то получи группу "Новичок", 10 способов повышения описаны тут -> ссылка
  • К сожалению количество битых ссылок растет и мы уже не можем их оперативно восстанавливать поэтому просим помощи у каждого нашего пользователя.
    С сегодняшнего дня, за каждую восстановленную ссылку мы заплатим Вам.
    Подробнее тут -> ссылка
  • Перенесем твои заслуги с другого ресурса!
    Мы понимаем как сложно прокачивать аккаунты на форумах, вроде раскачал аккаунт, а тут появляется ресурс в 100 раз круче но тоже с системой прокачки и снова качать аккаунт...
    Предлагаем вам перенести Ваши заслуги на другом подобном ресурсе к нам.
    Подробности описаны тут -> ссылка
  • Вы можете получать по 2.5% с каждой покупки и продажи на маркете! Подробности в теме Партнёрская программа
Если Вы не хотите скачивать, Вы всегда можетепосмотретьонлайн, просто нажмите кнопку ниже :

Открыть плеер

Torrent_Bot

Торрент-Бот
Бот форума
4 Окт 2016
92
163
20



Информация о фильме
Название: Святой Винсент
Оригинальное название: St. Vincent
Год выхода: 2014
Жанр: Драма, комедия
Режиссер: Тед Мелфи
В ролях: Билл Мюррей, Мелисса МакКарти, Наоми Уоттс, Крис О`Дауд, Терренс Ховард, Джейден Мартелл, Кимберли Куинн, Ленни Венито, Нэйт Корддр, Дарио Бароссо

О фильме:
Мэгги — одинокая женщина, которая после развода со своим супругом вынуждена в одиночку воспитывать двенадцатилетнего сына Оливера. Ей приходится самой зарабатывать на жизнь, что мешает ей постоянно находится вместе с ребенком. Чтобы не оставлять Оливера одного, она принимает предложение их соседа, пожилого ветерана войны Винсента, который соглашается присмотреть за парнем за одиннадцать долларов в час, когда это необходимо. У Мэгги не остается другого выбора, как воспользоваться услугами их соседа, хотя он явно не внушает ей доверия. Стареющий Винсент является далеко не святым человеком: он любит выпить, делать ставки на скачках и проводить время в компании женщин легкого поведения. Однако Оливеру больше по душе именно его компания, чем проповеди святого отца в школе, который учит детей жить без греха...




Страна: США
Студия: Chernin Entertainment, Crescendo Productions, Goldenlight Films, The Weinstein Company LLC
Продолжительность: 01:42:26
Перевод: Дублированный, профессиональный многоголосый, любительский одноголосый

Файл
Качество: BDRip 720p
Видео: MPEG-4 AVC, 8500 Кбит/с, 1280x692, 23.976 Кадр/с
Звук:
Aудио#1: Russian: 48 kHz, AC3, 2 (L,R) ch, ~192.00 kbps avg |Дубляж, т/к Супер|
Aудио#2: Russian: 48 kHz, AC3, 2 (L,R) ch, ~192.00 kbps avg |Профессиональный многоголосый, т/к Кинопоказ|
Aудио#3: Russian: 48 kHz, AC3, 3/2 (L,C,R,l,r) + LFE ch, ~448.00 kbps avg |Профессиональный многоголосый, FocusX|
Aудио#4: Russian: 48 kHz, AC3, 3/2 (L,C,R,l,r) + LFE ch, ~384.00 kbps avg |Любительский одноголосый, datynet|
Aудио#5: English: 48 kHz, DTS, 3/2 (L,C,R,l,r) + LFE ch, ~1509.00 kbps avg
Субтитры: Russian (Full-length), English (Full-length, SDH)

Log/MediaInfo
x264 [info]: frame I:1335 Avg QP:14.73 size:168806
x264 [info]: frame P:29193 Avg QP:16.98 size: 75709
x264 [info]: frame B:116832 Avg QP:18.03 size: 35043

Формат : Matroska
Версия формата : Version 4
Размер файла : 8,03 Гбайт
Продолжительность : 1 ч. 42 м.
Общий поток : 11,2 Мбит/сек
Название фильма : St.Vincent.2014.x264.BDRip.720p.Rus.Eng.ExKinoRay
Дата кодирования : UTC 2020-08-30 10:47:25
Программа кодирования : mkvmerge v49.0.0 ('Sick Of Losing Soulmates') 64-bit
Библиотека кодирования : libebml v1.4.0 + libmatroska v1.6.1

Видео
Идентификатор : 1
Формат : AVC
Формат/Информация : Advanced Video Codec
Профиль формата : [email protected]
Настройки формата : CABAC / 9 Ref Frames
Параметр CABAC формата : Да
Параметр RefFrames формата : 9 кадров
Идентификатор кодека : V_MPEG4/ISO/AVC
Продолжительность : 1 ч. 42 м.
Битрейт : 8 500 Кбит/сек
Ширина : 1 280 пикселей
Высота : 692 пикселя
Соотношение сторон : 1,85:1
Режим частоты кадров : Постоянный
Частота кадров : 23,976 кадра/сек
Цветовое пространство : YUV
Субдискретизация насыщенности : 4:2:0
Битовая глубина : 8 бит
Тип развёртки : Прогрессивная
Бит/(Пиксели*Кадры) : 0.400
Размер потока : 6,08 Гбайт (76%)
Заголовок : St.Vincent.2014.x264.BDRip.720p.Rus.Eng.ExKinoRay
Библиотека кодирования : x264 core 160 r3000 33f9e14
Настройки программы : cabac=1 / ref=9 / deblock=1:-3:-3 / analyse=0x3:0x113 / me=umh / subme=11 / psy=1 / psy_rd=1.00:0.15 / mixed_ref=1 / me_range=32 / chroma_me=1 / trellis=2 / 8x8dct=1 / cqm=0 / deadzone=21,11 / fast_pskip=0 / chroma_qp_offset=-3 / threads=18 / lookahead_threads=4 / sliced_threads=0 / nr=0 / decimate=0 / interlaced=0 / bluray_compat=0 / constrained_intra=0 / bframes=11 / b_pyramid=2 / b_adapt=2 / b_bias=0 / direct=3 / weightb=1 / open_gop=0 / weightp=2 / keyint=240 / keyint_min=23 / scenecut=40 / intra_refresh=0 / rc_lookahead=80 / rc=2pass / mbtree=0 / bitrate=8500 / ratetol=1.0 / qcomp=0.60 / qpmin=0 / qpmax=69 / qpstep=4 / cplxblur=20.0 / qblur=0.5 / vbv_maxrate=62500 / vbv_bufsize=78125 / nal_hrd=none / filler=0 / ip_ratio=1.30 / pb_ratio=1.20 / aq=3:0.80
Язык : English
Default : Да
Forced : Нет

Аудио #1
Идентификатор : 2
Формат : AC-3
Формат/Информация : Audio Coding 3
Коммерческое название : Dolby Digital
Идентификатор кодека : A_AC3
Продолжительность : 1 ч. 42 м.
Вид битрейта : Постоянный
Битрейт : 192 Кбит/сек
Каналы : 2 канала
Channel layout : L R
Частота : 48,0 КГц
Частота кадров : 31,250 кадров/сек (1536 SPF)
Метод сжатия : С потерями
Размер потока : 141 Мбайт (2%)
Заголовок : Дублированный (т/к Супер)
Язык : Russian
Default : Да
Forced : Нет

Аудио #2
Идентификатор : 3
Формат : AC-3
Формат/Информация : Audio Coding 3
Коммерческое название : Dolby Digital
Идентификатор кодека : A_AC3
Продолжительность : 1 ч. 42 м.
Вид битрейта : Постоянный
Битрейт : 192 Кбит/сек
Каналы : 2 канала
Channel layout : L R
Частота : 48,0 КГц
Частота кадров : 31,250 кадров/сек (1536 SPF)
Метод сжатия : С потерями
Размер потока : 141 Мбайт (2%)
Заголовок : Профессиональный многоголосый (т/к Кинопоказ)
Язык : Russian
Default : Нет
Forced : Нет

Аудио #3
Идентификатор : 4
Формат : AC-3
Формат/Информация : Audio Coding 3
Коммерческое название : Dolby Digital
Идентификатор кодека : A_AC3
Продолжительность : 1 ч. 42 м.
Вид битрейта : Постоянный
Битрейт : 448 Кбит/сек
Каналы : 6 каналов
Channel layout : L R C LFE Ls Rs
Частота : 48,0 КГц
Частота кадров : 31,250 кадров/сек (1536 SPF)
Метод сжатия : С потерями
Размер потока : 328 Мбайт (4%)
Заголовок : Профессиональный многоголосый (FocusX)
Язык : Russian
Default : Нет
Forced : Нет

Аудио #4
Идентификатор : 5
Формат : AC-3
Формат/Информация : Audio Coding 3
Коммерческое название : Dolby Digital
Идентификатор кодека : A_AC3
Продолжительность : 1 ч. 42 м.
Вид битрейта : Постоянный
Битрейт : 384 Кбит/сек
Каналы : 6 каналов
Channel layout : L R C LFE Ls Rs
Частота : 48,0 КГц
Частота кадров : 31,250 кадров/сек (1536 SPF)
Метод сжатия : С потерями
Размер потока : 281 Мбайт (3%)
Заголовок : Любительский одноголосый (datynet)
Язык : Russian
Default : Нет
Forced : Нет

Аудио #5
Идентификатор : 6
Формат : DTS
Формат/Информация : Digital Theater Systems
Идентификатор кодека : A_DTS
Продолжительность : 1 ч. 42 м.
Вид битрейта : Постоянный
Битрейт : 1 509 Кбит/сек
Каналы : 6 каналов
Channel layout : C L R Ls Rs LFE
Частота : 48,0 КГц
Частота кадров : 93,750 кадра/сек (512 SPF)
Битовая глубина : 24 бит
Метод сжатия : С потерями
Размер потока : 1,08 Гбайт (13%)
Заголовок : DTS Audio 5.1 ch 1509 Kbps
Язык : English
Default : Нет
Forced : Нет

Текст #1
Идентификатор : 7
Формат : UTF-8
Идентификатор кодека : S_TEXT/UTF8
Идентификатор кодека/Информация : UTF-8 Plain Text
Продолжительность : 1 ч. 37 м.
Битрейт : 107 бит/сек
Count of elements : 1484
Размер потока : 76,5 Кбайт (0%)
Заголовок : Full-length
Язык : Russian
Default : Нет
Forced : Нет

Текст #2
Идентификатор : 8
Формат : UTF-8
Идентификатор кодека : S_TEXT/UTF8
Идентификатор кодека/Информация : UTF-8 Plain Text
Продолжительность : 1 ч. 41 м.
Битрейт : 64 бит/сек
Count of elements : 1560
Размер потока : 47,9 Кбайт (0%)
Заголовок : Full-length
Язык : English
Default : Нет
Forced : Нет

Текст #3
Идентификатор : 9
Формат : UTF-8
Идентификатор кодека : S_TEXT/UTF8
Идентификатор кодека/Информация : UTF-8 Plain Text
Продолжительность : 1 ч. 41 м.
Битрейт : 70 бит/сек
Count of elements : 1750
Размер потока : 52,5 Кбайт (0%)
Заголовок : SDH
Язык : English
Default : Нет
Forced : Нет

Меню
00:00:00.000 : :00:00:00.000
00:07:49.010 : :00:07:49.010
00:14:19.150 : :00:14:19.150
00:18:52.006 : :00:18:52.006
00:25:53.093 : :00:25:53.093
00:33:26.171 : :00:33:26.171
00:41:03.920 : :00:41:03.920
00:47:41.150 : :00:47:41.150
00:56:05.320 : :00:56:05.320
01:03:48.616 : :01:03:48.616
01:09:43.262 : :01:09:43.262
01:14:10.404 : :01:14:10.404
01:20:18.063 : :01:20:18.063
01:28:48.281 : :01:28:48.281
01:34:46.055 : :01:34:46.055
01:37:19.459 : :01:37:19.459
Notes
Fixed OCR subs.
Скриншоты


Релиз от:
 

Вложения

  • 21 KB Просмотры: 0
    Личеров 0
    Сидеров 0
    Файлов 1
    Объем 8 GB

Привет!

Мы группа людей которые решили помочь другим в решении их проблем, а так же пользователям с поиском самых свежих и качественных инфопродуктов. За 4 с небольшим месяца мы создали этот форум на который заходят ежедневно тысячи человек и посещаемость постоянно растёт. Мы создали панель лицензирования для защиты PHP скриптов от воровства и SEO панель для мониторинга наших сайтов и выбора верной стратегии их развития. Мы надеемся что то что мы создали пригодится Вам и возможно Вы поможете нам развиваться и совершенствоваться вместе с Вами.

Статистика форума

Темы
406.678
Сообщения
465.125
Пользователи
84.737
Новый пользователь
Mo0dak

Приложения форума для iOS и Android


У ркн там нет власти ;)
Приватные разговоры
Помощь Пользователи
    Вы не присоединились ни к одной комнате.