За последнюю неделю опубликовано 34 новых материалов.
Инструкция новичку Путеводитель по форуму Прокси для Telegram Показать подсказки , это бомба!

Скачать Светлое завтра / Осторожно - медузы! / Яркое будущее / Akarui Mirai / Jellyfish / Bright Future (2002) DVDRip от liosaa | L1 | Extended Cut бесплатно через торрент

  • Поучаствуй (в качестве покупателя) в любых пяти совместных покупках (кроме завершённых и "Моментальных") и получи группу "Новичок" навсегда -> ссылка на раздел
  • Получай до 480 рублей за каждого приглашенного пользователя!
    представляем Вам очередное расширение партнерской программы, подробности описаны тут -> ссылка
  • 90% материалов доступно к скачиванию после простой регистрации!
    Если же ты хочешь скачивать материалы без требования оставлять отзывы то получи группу "Новичок", 10 способов повышения описаны тут -> ссылка
  • К сожалению количество битых ссылок растет и мы уже не можем их оперативно восстанавливать поэтому просим помощи у каждого нашего пользователя.
    С сегодняшнего дня, за каждую восстановленную ссылку мы заплатим Вам.
    Подробнее тут -> ссылка
  • Перенесем твои заслуги с другого ресурса!
    Мы понимаем как сложно прокачивать аккаунты на форумах, вроде раскачал аккаунт, а тут появляется ресурс в 100 раз круче но тоже с системой прокачки и снова качать аккаунт...
    Предлагаем вам перенести Ваши заслуги на другом подобном ресурсе к нам.
    Подробности описаны тут -> ссылка
  • Вы можете получать по 2.5% с каждой покупки и продажи на маркете! Подробности в теме Партнёрская программа
Если Вы не хотите скачивать, Вы всегда можетепосмотретьонлайн, просто нажмите кнопку ниже :

Открыть плеер

Torrent_Bot

Торрент-Бот
Бот форума
4 Окт 2016
93
160
20



Информация о фильме
Название: Светлое завтра / Осторожно - медузы! / Яркое будущее
Оригинальное название: Akarui Mirai / Jellyfish / Bright Future
Год выхода: 2002
Жанр: притча, комедия, драма
Режиссер: Киёси Куросава / Kiyoshi Kurosawa
В ролях: Дзё Одагири, Таданобу Асано, Тацуя Фудзи, Такаси Сасано, Маруми Сираиси…

О фильме:
"Прежде чем строить, взорви к едреням всё старое!" - известный тезис, клич молодости, ни дать ни взять. А молодость - это такое зло, без которого нам ну, никак не выжить (и правда, какое там без свежих сил юности СВЕТЛОе ЗАВТРА!). Может, это и не зло в чистом виде, но уж точно убить может или током шарахнуть - как медуза, как ядовитая Красная медуза. С одной такой нянчится у себя в хибаре взлохмаченный "похерист" Юджи, лелея надежду адаптировать её к пресноводным каналам Токио - зачем, фиг знает, просто так друг велел. А друг его, мутный такой парень Мамору, на днях зверски убил ни в чём не повинных пожилого шефа с жёнушкой (дочку не тронул), похоже из-за какого-то деструктивного импульса, просто как носителей уютного мещанского консерватизма, не более - и теперь ждёт свой смертный час за решёткой... Но медузу просил беречь пуще глаза...

Вот вам ещё один кино-парадокс от мастера восточного гипно-мистицизма Киёси Куросавы, в который раз плетущего свою вязь из чёрных паров распада и тлена. Чтобы снова обняться со смертью и спеть с ней песенку. Про то, как невыносимо хрупка и невинна эта убойная пора - молодость!

Доп. информация: ...Для yчacтия в пoкaзe нa мeждyнapoднoм кинoфecтивaлe в Kaннax (2003) Kиёcи Kypocaвa сам выpeзaл 20 минyт, сделав фильм более лаконичным, а финал драматизировав... Kypocaвa oтмeчaeт, чтo любит обе версии фильма, и что короткая имeeт свои cильныe cтopoны!




Страна: Япония
Продолжительность: 01:55:01
Перевод: Любительский (одноголосый закадровый) liosaa

Файл
Кодек: DivX
Качество: DVDRip
Видео: 576x320 (16:9), 23.976 fps, ~690 kbps
Звук:
MP3, 48.0 KHz, 2ch, 160kbps (рус)
Субтитры: нет

MI
Формат : AVI
Формат/Информация : Audio Video Interleave
Размер файла : 707 Мбайт
Продолжительность : 1 ч. 55 м.
Общий поток : 859 Кбит/сек
Название фильма : Bright Future (2003)
Режиссёр : PosTX
Тема : Bright Future (2003)
Программа кодирования : VirtualDubMod 1.5.10.2 (build 2540/release)
Библиотека кодирования : VirtualDubMod build 2540/release

Видео
Идентификатор : 0
Формат : MPEG-4 Visual
Идентификатор кодека : DIV3
Идентификатор кодека/Подсказка : DivX 3 Low
Продолжительность : 1 ч. 55 м.
Битрейт : 690 Кбит/сек
Ширина : 576 пикселей
Высота : 320 пикселей
Соотношение сторон : 16:9
Частота кадров : 23,976 (24000/1001) кадра/сек
Цветовое пространство : YUV
Субдискретизация насыщенности : 4:2:0
Битовая глубина : 8 бит
Метод сжатия : С потерями
Бит/(Пиксели*Кадры) : 0.156
Размер потока : 568 Мбайт (80%)

Аудио
Идентификатор : 1
Формат : MPEG Audio
Версия формата : Version 1
Профиль формата : Layer 3
Настройки формата : Joint stereo
Идентификатор кодека : 55
Идентификатор кодека/Подсказка : MP3
Продолжительность : 1 ч. 55 м.
Вид битрейта : Постоянный
Битрейт : 160 Кбит/сек
Каналы : 2 канала
Частота : 48,0 КГц
Метод сжатия : С потерями
Размер потока : 132 Мбайт (19%)
Выравнивание : Соединение по промежуткам
Продолжительность промежутка : 42 мс. (1,00 видеокадр)
Время предзагрузки промежутка : 504 мс.
Скриншоты

Релиз от: liosaa
 

Вложения

  • 14,9 KB Просмотры: 0
    Личеров 0
    Сидеров 0
    Файлов 1
    Объем 707 MB

Привет!

Мы группа людей которые решили помочь другим в решении их проблем, а так же пользователям с поиском самых свежих и качественных инфопродуктов. За 4 с небольшим месяца мы создали этот форум на который заходят ежедневно тысячи человек и посещаемость постоянно растёт. Мы создали панель лицензирования для защиты PHP скриптов от воровства и SEO панель для мониторинга наших сайтов и выбора верной стратегии их развития. Мы надеемся что то что мы создали пригодится Вам и возможно Вы поможете нам развиваться и совершенствоваться вместе с Вами.

Статистика форума

Темы
406.601
Сообщения
464.985
Пользователи
84.247
Новый пользователь
Mikka

Приложения форума для iOS и Android


У ркн там нет власти ;)
Приватные разговоры
Помощь Пользователи
    Вы не присоединились ни к одной комнате.