За последнюю неделю опубликовано 66 новых материалов.
Инструкция новичку Путеводитель по форуму Прокси для Telegram Показать подсказки , это бомба!

Скачать Сваха / Sabaha / Svaha: The Sixth Finger (2019) WEB-DL 1080p | L1 бесплатно через торрент

  • Поучаствуй (в качестве покупателя) в любых пяти совместных покупках (кроме завершённых и "Моментальных") и получи группу "Новичок" навсегда -> ссылка на раздел
  • Получай до 480 рублей за каждого приглашенного пользователя!
    представляем Вам очередное расширение партнерской программы, подробности описаны тут -> ссылка
  • 90% материалов доступно к скачиванию после простой регистрации!
    Если же ты хочешь скачивать материалы без требования оставлять отзывы то получи группу "Новичок", 10 способов повышения описаны тут -> ссылка
  • К сожалению количество битых ссылок растет и мы уже не можем их оперативно восстанавливать поэтому просим помощи у каждого нашего пользователя.
    С сегодняшнего дня, за каждую восстановленную ссылку мы заплатим Вам.
    Подробнее тут -> ссылка
  • Перенесем твои заслуги с другого ресурса!
    Мы понимаем как сложно прокачивать аккаунты на форумах, вроде раскачал аккаунт, а тут появляется ресурс в 100 раз круче но тоже с системой прокачки и снова качать аккаунт...
    Предлагаем вам перенести Ваши заслуги на другом подобном ресурсе к нам.
    Подробности описаны тут -> ссылка
  • Вы можете получать по 2.5% с каждой покупки и продажи на маркете! Подробности в теме Партнёрская программа
Если Вы не хотите скачивать, Вы всегда можетепосмотретьонлайн, просто нажмите кнопку ниже :

Открыть плеер

Torrent_Bot

Торрент-Бот
Бот форума
4 Окт 2016
102
157
20



Информация о фильме
Название: Сваха
Оригинальное название: Sabaha / Svaha: The Sixth Finger
Год выхода: 2019
Жанр: Детектив, триллер, фэнтези
Режиссер: Чан Джэ-хён
В ролях: Чжон Чжэ Ли, Чон Мин Пак (II), Джэ Ин Ли, Чжин Ён Чон (II), Да Вит Ли, Чон Мин Хван, Сон Гю Чжин, Сын Хён Чжи, Мин Танака, Дон Хван Чон, Чжи Тхэ Ю, Хон Фа Ким, Чжи Хван Пак, Кён Хо Юн

О фильме:
Когда Кым-хва была ещё в утробе матери, рядом с ней рос демон. Они появились на свет, мать скончалась, а родня не стала убивать уродца, решив, что тот умрёт сам. Но существо продолжило жить, отец, не выдержав позора, повесился, и теперь оставшееся семейство, таская демона с собой, вынуждено часто переезжать. Пастор Пак занимается разоблачением сект, которые как грибы после дождя появляются в Южной Корее каждый год. Он выходит на очередную подозрительную религиозную организацию, которая, как считает Пак, связана с недавно обнаруженными полицией телами.



Страна: Корея Южная
Студия: CJ E&M Film Financing & Investment Entertainment & Comics, CJ Entertainment, Filmmaker R&K
Продолжительность: 02:03:16
Перевод: Любительский одноголосый | Виктор Береговых

Файл
Кодек: AVC
Качество: WEB-DL 1080p | Svaha.The.Sixth.Finger.2019.KOREAN.1080p.NF.WEB-DL.DDP5.1.x264-NTG
Видео: MPEG-4 AVC, 7117 Kбит/с, 1920x1080, 24.000 кадр/с
Звук: ► Релиз без Рекламы!
Аудио #1: Русский ( АС3, 2ch, 224 Кбит/с, 48.0 KHz) Любительский (одноголосый, закадровый) Виктор Береговых
Аудио #2: Корейский (E-АС3, 6ch, 640 Кбит/с, 48.0 KHz)
Субтитры: Русские, английские | Netflix
Трейлер
MediaInfo
Источник: Svaha.The.Sixth.Finger.2019.KOREAN.1080p.NF.WEB-DL.DDP5.1.x264-NTG
General
Unique ID : 108737288919390263918922377149555294388 (0x51CE0A42B110C9887170065D812640B4)
Complete name : Svaha.WEB-DL.1080p.mkv
Format : Matroska
Format version : Version 4
File size : 6.87 GiB
Duration : 2 h 3 min
Overall bit rate mode : Variable
Overall bit rate : 7 982 kb/s
Movie name : Сваха / Svaha: The Sixth Finger / Sabaha (2019) WEB-DL (1080p)
Encoded date : UTC 2019-06-01 08:17:10
Writing application : mkvmerge v34.0.0 ('Sight and Seen') 32-bit
Writing library : libebml v1.3.7 + libmatroska v1.5.0

Video
ID : 1
Format : AVC
Format/Info : Advanced Video Codec
Format profile : High@L4
Format settings : CABAC / 4 Ref Frames
Format settings, CABAC : Yes
Format settings, ReFrames : 4 frames
Codec ID : V_MPEG4/ISO/AVC
Duration : 2 h 3 min
Bit rate mode : Variable
Bit rate : 7 117 kb/s
Maximum bit rate : 20.0 Mb/s
Width : 1 920 pixels
Height : 1 080 pixels
Display aspect ratio : 16:9
Frame rate mode : Constant
Frame rate : 24.000 FPS
Color space : YUV
Chroma subsampling : 4:2:0
Bit depth : 8 bits
Scan type : Progressive
Bits/(Pixel*Frame) : 0.143
Stream size : 6.13 GiB (89%)
Title : Сваха / Svaha: The Sixth Finger / Sabaha (2019) WEB-DL (1080p)
Writing library : x264 core 148 r2715 7e75228
Encoding settings : cabac=1 / ref=4 / deblock=1:0:0 / analyse=0x3:0x111 / me=umh / subme=10 / psy=1 / psy_rd=1.00:0.00 / mixed_ref=1 / me_range=120 / chroma_me=1 / trellis=2 / 8x8dct=1 / cqm=0 / deadzone=21,11 / fast_pskip=1 / chroma_qp_offset=-2 / threads=8 / lookahead_threads=2 / sliced_threads=0 / nr=0 / decimate=1 / interlaced=0 / bluray_compat=0 / stitchable=1 / constrained_intra=0 / bframes=16 / b_pyramid=2 / b_adapt=2 / b_bias=0 / direct=3 / weightb=1 / open_gop=0 / weightp=2 / keyint=240 / keyint_min=121 / scenecut=0 / intra_refresh=0 / rc_lookahead=240 / rc=crf / mbtree=1 / crf=20.0 / qcomp=0.50 / qpmin=6 / qpmax=51 / qpstep=4 / vbv_maxrate=20000 / vbv_bufsize=25000 / crf_max=0.0 / nal_hrd=vbr / filler=0 / ip_ratio=1.40 / aq=1:0.80
Language : Korean
Default : Yes
Forced : No

Audio #1
ID : 2
Format : AC-3
Format/Info : Audio Coding 3
Commercial name : Dolby Digital
Codec ID : A_AC3
Duration : 2 h 3 min
Bit rate mode : Constant
Bit rate : 224 kb/s
Channel(s) : 2 channels
Channel layout : L R
Sampling rate : 48.0 kHz
Frame rate : 31.250 FPS (1536 SPF)
Bit depth : 16 bits
Compression mode : Lossy
Stream size : 198 MiB (3%)
Title : Russian (Одноголосый закадровый Виктор Береговых)
Language : Russian
Service kind : Complete Main
Default : Yes
Forced : No

Audio #2
ID : 3
Format : E-AC-3
Format/Info : Enhanced AC-3
Commercial name : Dolby Digital Plus
Codec ID : A_EAC3
Duration : 2 h 3 min
Bit rate mode : Constant
Bit rate : 640 kb/s
Channel(s) : 6 channels
Channel layout : L R C LFE Ls Rs
Sampling rate : 48.0 kHz
Frame rate : 31.250 FPS (1536 SPF)
Compression mode : Lossy
Stream size : 564 MiB (8%)
Title : Korean
Language : Korean
Service kind : Complete Main
Default : No
Forced : No

Text #1
ID : 4
Format : UTF-8
Codec ID : S_TEXT/UTF8
Codec ID/Info : UTF-8 Plain Text
Duration : 1 h 57 min
Bit rate : 81 b/s
Count of elements : 1385
Stream size : 70.4 KiB (0%)
Title : Netflix
Language : Russian
Default : No
Forced : No

Text #2
ID : 5
Format : UTF-8
Codec ID : S_TEXT/UTF8
Codec ID/Info : UTF-8 Plain Text
Duration : 1 h 57 min
Bit rate : 51 b/s
Count of elements : 1308
Stream size : 44.6 KiB (0%)
Title : Netflix
Language : English
Default : No
Forced : No
Скриншоты
 

Вложения

  • 35,3 KB Просмотры: 1
    Личеров 0
    Сидеров 0
    Файлов 1
    Объем 6,9 GB

Привет!

Мы группа людей которые решили помочь другим в решении их проблем, а так же пользователям с поиском самых свежих и качественных инфопродуктов. За 4 с небольшим месяца мы создали этот форум на который заходят ежедневно тысячи человек и посещаемость постоянно растёт. Мы создали панель лицензирования для защиты PHP скриптов от воровства и SEO панель для мониторинга наших сайтов и выбора верной стратегии их развития. Мы надеемся что то что мы создали пригодится Вам и возможно Вы поможете нам развиваться и совершенствоваться вместе с Вами.

Статистика форума

Темы
405.452
Сообщения
462.488
Пользователи
80.549
Новый пользователь
Pi20

Приложения форума для iOS и Android


У ркн там нет власти ;)
Приватные разговоры
Помощь Пользователи
    Вы не присоединились ни к одной комнате.