За последнюю неделю опубликовано 94 новых материалов.
Инструкция новичку Путеводитель по форуму Прокси для Telegram Показать подсказки , это бомба!

Скачать Сумеречная зона / Twilight Zone: The Movie (1983) BDRip 1080p | P бесплатно через торрент

  • Поучаствуй (в качестве покупателя) в любых пяти совместных покупках (кроме завершённых и "Моментальных") и получи группу "Новичок" навсегда -> ссылка на раздел
  • Получай до 480 рублей за каждого приглашенного пользователя!
    представляем Вам очередное расширение партнерской программы, подробности описаны тут -> ссылка
  • 90% материалов доступно к скачиванию после простой регистрации!
    Если же ты хочешь скачивать материалы без требования оставлять отзывы то получи группу "Новичок", 10 способов повышения описаны тут -> ссылка
  • К сожалению количество битых ссылок растет и мы уже не можем их оперативно восстанавливать поэтому просим помощи у каждого нашего пользователя.
    С сегодняшнего дня, за каждую восстановленную ссылку мы заплатим Вам.
    Подробнее тут -> ссылка
  • Перенесем твои заслуги с другого ресурса!
    Мы понимаем как сложно прокачивать аккаунты на форумах, вроде раскачал аккаунт, а тут появляется ресурс в 100 раз круче но тоже с системой прокачки и снова качать аккаунт...
    Предлагаем вам перенести Ваши заслуги на другом подобном ресурсе к нам.
    Подробности описаны тут -> ссылка
  • Вы можете получать по 2.5% с каждой покупки и продажи на маркете! Подробности в теме Партнёрская программа
Если Вы не хотите скачивать, Вы всегда можетепосмотретьонлайн, просто нажмите кнопку ниже :

Открыть плеер

Torrent_Bot

Торрент-Бот
Бот форума
4 Окт 2016
102
152
20
Информация о фильме
Название: Сумеречная зона
Оригинальное название: Twilight Zone: The Movie
Год выхода: 1983
Жанр: Ужасы, фантастика, фэнтези
Режиссер: Джон Лэндис, Стивен Спилберг, Джо Данте, Джордж Миллер
В ролях: Дэн Эйкройд, Альберт Брукс, Вик Морроу, Даг МакГрат, Чарльз Халлахан, Кари Вулфф, Сью Дуган, Дебби Портер, Стивен Уильям

О фильме:
Вам предстоит путешествие в другое измерение, неподвластное вашему взору, слуху и разуму. Вы отправляетесь туда, где у воображения нет пределов. Следующая остановка - Сумеречная зона! Поставленный по мотивам популярного в 60-х годах телесериала "Сумеречная зона" ведущего и сценариста Рода Серлинга, этот фильм покажет вам четыре истории: о гневном расисте, судьба которого забросила в самый дальний угол "сумеречной зоны", из которого он так и не смог выбраться; о старике-бродяге, который омолодил дом престарелых; об учительнице, подружившейся с волшебником-мальчиком-узурпатором; и о неврастенике, который узрел черта, разбирающего двигатель на крыле самолета. Вы готовы? Тогда - добро пожаловать в Сумеречную зону!


3150a01dd39c62e3f61776fcf483e3cb.gif

Страна: США
Студия: Amblin Entertainment, Warner Bros. Pictures
Продолжительность: 01:41:16
Перевод: Профессиональный многоголосый

Файл
Кодек: x.264
Качество: BDRip 1080p
Видео: MPEG-4 AVC, 1920x1080, 10.6 Mбит/с, 23.976 кадр/с
Звук:
Аудио #1: Русский ( АС3, 2 ch, 192 Кбит/с, 48.0 KHz) Профессиональный (многоголосый закадровый) [СВ-Дубль] 2016г
Аудио #2: Русский ( АС3, 2ch, 192 Кбит/с, 48.0 KHz) Профессиональный (многоголосый, закадровый) [ВГТРК]
Аудио #3: Английский ( АС3, 6 ch, 448 Кбит/с, 48.0 KHz)
Субтитры: aнглийские
MediaInfo
General
Unique ID : 180758198022486424044642493127310162351 (0x87FCC33B7D7DCBC4A4354916F423B9AF)
Complete name : Twilight.Zone.The.Movie.1983.BDRip.1080p.mkv
Format : Matroska
Format version : Version 4 / Version 2
File size : 8.08 GiB
Duration : 1 h 41 min
Overall bit rate : 11.4 Mb/s
Encoded date : UTC 2018-03-06 10:04:01
Writing application : mkvmerge v7.1.0 ('Good Love') 64bit built on Jul 27 2014 13:06:55
Writing library : libebml v1.3.0 + libmatroska v1.4.1
Cover : Yes
Attachments : cover.jpg

Video
ID : 1
Format : AVC
Format/Info : Advanced Video Codec
Format profile : High@L4.1
Format settings : CABAC / 4 Ref Frames
Format settings, CABAC : Yes
Format settings, ReFrames : 4 frames
Codec ID : V_MPEG4/ISO/AVC
Duration : 1 h 41 min
Bit rate : 10.6 Mb/s
Width : 1 920 pixels
Height : 1 080 pixels
Display aspect ratio : 16:9
Frame rate mode : Constant
Frame rate : 23.976 (24000/1001) FPS
Color space : YUV
Chroma subsampling : 4:2:0
Bit depth : 8 bits
Scan type : Progressive
Bits/(Pixel*Frame) : 0.213
Stream size : 7.49 GiB (93%)
Writing library : x264 core 79 r1342 e8501ef
Encoding settings : cabac=1 / ref=4 / deblock=1:0:0 / analyse=0x3:0x2 / me=umh / subme=7 / psy=1 / psy_rd=1.0:0.0 / mixed_ref=1 / me_range=16 / chroma_me=1 / trellis=1 / 8x8dct=1 / cqm=0 / deadzone=21,11 / chroma_qp_offset=-2 / threads=12 / nr=0 / decimate=1 / mbaff=0 / constrained_intra=0 / bframes=3 / b_pyramid=0 / b_adapt=1 / b_bias=0 / direct=1 / wpredb=1 / wpredp=2 / keyint=250 / keyint_min=25 / scenecut=40 / rc=2pass / mbtree=0 / bitrate=10594 / ratetol=1.0 / qcomp=0.60 / qpmin=10 / qpmax=51 / qpstep=4 / cplxblur=20.0 / qblur=0.5 / ip_ratio=1.40 / pb_ratio=1.30 / aq=1:1.00
Language : English
Default : Yes
Forced : No

Audio #1
ID : 2
Format : AC-3
Format/Info : Audio Coding 3
Codec ID : A_AC3
Duration : 1 h 38 min
Bit rate mode : Constant
Bit rate : 192 kb/s
Channel(s) : 2 channels
Channel positions : Front: L R
Sampling rate : 48.0 kHz
Frame rate : 31.250 FPS (1536 SPF)
Bit depth : 16 bits
Compression mode : Lossy
Stream size : 135 MiB (2%)
Title : Профессиональный (многоголосый закадровый) [СВ-Дубль] 2016г.
Language : Russian
Service kind : Complete Main
Default : Yes
Forced : No

Audio #2
ID : 3
Format : AC-3
Format/Info : Audio Coding 3
Codec ID : A_AC3
Duration : 1 h 41 min
Bit rate mode : Constant
Bit rate : 192 kb/s
Channel(s) : 2 channels
Channel positions : Front: L R
Sampling rate : 48.0 kHz
Frame rate : 31.250 FPS (1536 SPF)
Bit depth : 16 bits
Compression mode : Lossy
Stream size : 139 MiB (2%)
Title : Профессиональный (многоголосый, закадровый) [ВГТРК]
Language : Russian
Service kind : Complete Main
Default : No
Forced : No

Audio #3
ID : 4
Format : AC-3
Format/Info : Audio Coding 3
Codec ID : A_AC3
Duration : 1 h 41 min
Bit rate mode : Constant
Bit rate : 448 kb/s
Channel(s) : 6 channels
Channel positions : Front: L C R, Side: L R, LFE
Sampling rate : 48.0 kHz
Frame rate : 31.250 FPS (1536 SPF)
Bit depth : 16 bits
Compression mode : Lossy
Stream size : 325 MiB (4%)
Title : Оригинал
Language : English
Service kind : Complete Main
Default : No
Forced : No

Text
ID : 5
Format : UTF-8
Codec ID : S_TEXT/UTF8
Codec ID/Info : UTF-8 Plain Text
Duration : 1 h 40 min
Bit rate : 58 b/s
Count of elements : 1284
Stream size : 42.8 KiB (0%)
Language : English
Default : No
Forced : No
Скриншоты
30dd14a7564d83a474ef442b37dedddf.jpg53f2a93cf5bc12e4aeace94255c6c50e.jpg8105a56b46d1df96deef6db32134ddba.jpg2447222a87f7a7179b825aedda794b6b.jpg0bb156239877ff6e2e6b9d3ecb974190.jpgb2a9bb7d51e8e281d8db54caa6d63b9e.jpg28dda4bbf498e29a5bf7f20ecd593cc4.jpg12bf4cbe083f0a393d69eac43525a86e.jpg2dea83a38789631d9433ec266b93bfaa.jpgaacf8c1b99f88ca9eee53ca4f7d5f6b2.jpg
 

Вложения

Привет!

Мы группа людей которые решили помочь другим в решении их проблем, а так же пользователям с поиском самых свежих и качественных инфопродуктов. За 4 с небольшим месяца мы создали этот форум на который заходят ежедневно тысячи человек и посещаемость постоянно растёт. Мы создали панель лицензирования для защиты PHP скриптов от воровства и SEO панель для мониторинга наших сайтов и выбора верной стратегии их развития. Мы надеемся что то что мы создали пригодится Вам и возможно Вы поможете нам развиваться и совершенствоваться вместе с Вами.

Статистика форума

Темы
404.586
Сообщения
461.454
Пользователи
80.270
Новый пользователь
какус

Приложения форума для iOS и Android


У ркн там нет власти ;)
Приватные разговоры
Помощь Пользователи
    Вы не присоединились ни к одной комнате.