За последнюю неделю опубликовано 66 новых материалов.
Инструкция новичку Путеводитель по форуму Прокси для Telegram Показать подсказки , это бомба!

Скачать Судьба человека (1959) WEB-DLRip 720p бесплатно через торрент

  • Поучаствуй (в качестве покупателя) в любых пяти совместных покупках (кроме завершённых и "Моментальных") и получи группу "Новичок" навсегда -> ссылка на раздел
  • Получай до 480 рублей за каждого приглашенного пользователя!
    представляем Вам очередное расширение партнерской программы, подробности описаны тут -> ссылка
  • 90% материалов доступно к скачиванию после простой регистрации!
    Если же ты хочешь скачивать материалы без требования оставлять отзывы то получи группу "Новичок", 10 способов повышения описаны тут -> ссылка
  • К сожалению количество битых ссылок растет и мы уже не можем их оперативно восстанавливать поэтому просим помощи у каждого нашего пользователя.
    С сегодняшнего дня, за каждую восстановленную ссылку мы заплатим Вам.
    Подробнее тут -> ссылка
  • Перенесем твои заслуги с другого ресурса!
    Мы понимаем как сложно прокачивать аккаунты на форумах, вроде раскачал аккаунт, а тут появляется ресурс в 100 раз круче но тоже с системой прокачки и снова качать аккаунт...
    Предлагаем вам перенести Ваши заслуги на другом подобном ресурсе к нам.
    Подробности описаны тут -> ссылка
  • Вы можете получать по 2.5% с каждой покупки и продажи на маркете! Подробности в теме Партнёрская программа
Если Вы не хотите скачивать, Вы всегда можетепосмотретьонлайн, просто нажмите кнопку ниже :

Открыть плеер

Torrent_Bot

Торрент-Бот
Бот форума
4 Окт 2016
92
163
20


Судьба человека



Страна: СCCР
Выпущено: Мосфильм
Год выпуска: 1959
Жанр: военная драма
Продолжительность: 01:36:58
Перевод: Не требуется

Режиссер: Сергей Бондарчук
В ролях: Сергей Бондарчук, Павел Полунин, Зинаида Кириенко, Павел Волков, Юрий Аверин, Кирилл Алексеев, Павел Винников, Евгений Тетерин, Анатолий Чемодуров, Лев Борисов

Описание: Фильм рассказывает о русском солдате, которого война подвергла страшным испытаниям, лишила дома и семьи, бросила в концлагерь. Но судьба не сломила его дух - он выжил, отстоял своё право быть человеком, сохранил способность любить.



Кодек: х264
Качество: WEB-DLRip 720p
Видео: MPEG-4 AVC, 4500 Кбит/с, 988х720, 25 fps
Аудио: Русский, АС3, 2 ch, 192 Кбит/с
Субтитры: Русские, английские
Главы: Есть




Релиз
За исходник благодарю george$t
Большую часть болячек убрал.

Source vs Encode
Инфо файл
x264 [info]: frame I:762 Avg QP:15.92 size: 98962
x264 [info]: frame P:33627 Avg QP:18.72 size: 42564
x264 [info]: frame B:111071 Avg QP:19.93 size: 15901

Общее
Уникальный идентификатор : 171132624870814931973063711408651384089 (0x80BEF1D5E52031A9AAC93F027DC23519)
Полное имя : J:Судьба человека 1959г.mkv
Формат : Matroska
Версия формата : Version 2
Размер файла : 3,18 Гбайт
Продолжительность : 1 ч. 36 м.
Общий поток : 4694 Кбит/сек
Дата кодирования : UTC 2020-06-24 06:50:13
Программа кодирования : mkvmerge v5.8.0 ('No Sleep / Pillow') built on Sep 2 2012 15:37:04
Библиотека кодирования : libebml v1.2.3 + libmatroska v1.3.0

Видео
Идентификатор : 1
Формат : AVC
Формат/Информация : Advanced Video Codec
Профиль формата : [email protected]
Настройки формата : CABAC / 11 Ref Frames
Параметр CABAC формата : Да
Параметр RefFrames формата : 11 кадров
Идентификатор кодека : V_MPEG4/ISO/AVC
Продолжительность : 1 ч. 36 м.
Битрейт : 4500 Кбит/сек
Ширина : 988 пикселей
Высота : 720 пикселей
Соотношение сторон : 1,372
Режим частоты кадров : Постоянный
Частота кадров : 25,000 кадров/сек
Цветовое пространство : YUV
Субдискретизация насыщенности : 4:2:0
Битовая глубина : 8 бит
Тип развёртки : Прогрессивная
Бит/(Пиксели*Кадры) : 0.253
Размер потока : 2,99 Гбайт (94%)
Библиотека кодирования : x264 core 152 r2851kMod ba24899
Настройки программы : cabac=1 / ref=11 / deblock=1:-2:-1 / analyse=0x3:0x113 / me=umh / subme=11 / psy=1 / fade_compensate=0.00 / psy_rd=1.05:0.10 / mixed_ref=1 / me_range=48 / chroma_me=1 / trellis=2 / 8x8dct=1 / cqm=0 / deadzone=21,11 / fast_pskip=0 / chroma_qp_offset=-3 / threads=12 / lookahead_threads=3 / sliced_threads=0 / nr=0 / decimate=0 / interlaced=0 / bluray_compat=0 / constrained_intra=0 / bframes=10 / b_pyramid=2 / b_adapt=2 / b_bias=0 / direct=3 / weightb=1 / open_gop=0 / weightp=2 / keyint=240 / keyint_min=24 / scenecut=40 / intra_refresh=0 / rc_lookahead=40 / rc=2pass / mbtree=0 / bitrate=4500 / ratetol=1.0 / qcomp=0.60 / qpmin=0 / qpmax=39 / qpstep=4 / cplxblur=20.0 / qblur=0.5 / vbv_maxrate=50000 / vbv_bufsize=62500 / nal_hrd=none / filler=0 / ip_ratio=1.25 / pb_ratio=1.30 / aq=1:1.00
Язык : English
Default : Да
Forced : Нет
Цветовой диапазон : Limited
Основные цвета : BT.709
Характеристики трансфера : BT.709
Коэффициенты матрицы : BT.709

Аудио
Идентификатор : 2
Формат : AC-3
Формат/Информация : Audio Coding 3
Параметр Endianness формата : Big
Идентификатор кодека : A_AC3
Продолжительность : 1 ч. 36 м.
Вид битрейта : Постоянный
Битрейт : 192 Кбит/сек
Каналы : 2 канала
Расположение каналов : Front: L R
Частота : 48,0 КГц
Частота кадров : 31,250 кадров/сек (1536 SPF)
Битовая глубина : 16 бит
Метод сжатия : С потерями
Размер потока : 133 Мбайт (4%)
Язык : Russian
Default : Да
Forced : Нет

Текст #1
Идентификатор : 3
Формат : UTF-8
Идентификатор кодека : S_TEXT/UTF8
Идентификатор кодека/Информация : UTF-8 Plain Text
Заголовок : DVD5 "КП"
Язык : Russian
Default : Нет
Forced : Нет

Текст #2
Идентификатор : 4
Формат : UTF-8
Идентификатор кодека : S_TEXT/UTF8
Идентификатор кодека/Информация : UTF-8 Plain Text
Заголовок : DVD5 "КП"
Язык : English
Default : Нет
Forced : Нет

Меню
00:00:00.000 : ru:У переправы. Титры
00:06:32.960 : ru:Память. Семья
00:14:05.960 : ru:Война
00:18:26.960 : ru:Ранение. В плену
00:23:32.960 : ru:Храм божий
00:31:44.960 : ru:Расстрел. Побег
00:41:38.960 : ru:Снова плен. По этапу
00:47:11.960 : ru:Лагерь "В-14"
00:52:59.960 : ru:Лагерфюрер Мюллер. Испытание
01:03:17.960 : ru:За баранкой
01:09:08.960 : ru:Линия фронта. На родине
01:19:32.960 : ru:Победа. Похороны сына
01:25:38.960 : ru:Ваня
01:30:44.960 : ru:Сынок!..
 

Вложения

  • 16,8 KB Просмотры: 0
    Личеров 0
    Сидеров 0
    Файлов 1
    Объем 3,2 GB

Привет!

Мы группа людей которые решили помочь другим в решении их проблем, а так же пользователям с поиском самых свежих и качественных инфопродуктов. За 4 с небольшим месяца мы создали этот форум на который заходят ежедневно тысячи человек и посещаемость постоянно растёт. Мы создали панель лицензирования для защиты PHP скриптов от воровства и SEO панель для мониторинга наших сайтов и выбора верной стратегии их развития. Мы надеемся что то что мы создали пригодится Вам и возможно Вы поможете нам развиваться и совершенствоваться вместе с Вами.

Статистика форума

Темы
406.677
Сообщения
465.122
Пользователи
84.731
Новый пользователь
LianSel

Приложения форума для iOS и Android


У ркн там нет власти ;)
Приватные разговоры
Помощь Пользователи
    Вы не присоединились ни к одной комнате.