За последнюю неделю опубликовано 30 новых материалов.
Инструкция новичку Путеводитель по форуму Прокси для Telegram Показать подсказки , это бомба!

Скачать Суд присяжных / Trial by Jury (1994) BDRip 1080p | P2, A бесплатно через торрент

  • Поучаствуй (в качестве покупателя) в любых пяти совместных покупках (кроме завершённых и "Моментальных") и получи группу "Новичок" навсегда -> ссылка на раздел
  • Получай до 480 рублей за каждого приглашенного пользователя!
    представляем Вам очередное расширение партнерской программы, подробности описаны тут -> ссылка
  • 90% материалов доступно к скачиванию после простой регистрации!
    Если же ты хочешь скачивать материалы без требования оставлять отзывы то получи группу "Новичок", 10 способов повышения описаны тут -> ссылка
  • К сожалению количество битых ссылок растет и мы уже не можем их оперативно восстанавливать поэтому просим помощи у каждого нашего пользователя.
    С сегодняшнего дня, за каждую восстановленную ссылку мы заплатим Вам.
    Подробнее тут -> ссылка
  • Перенесем твои заслуги с другого ресурса!
    Мы понимаем как сложно прокачивать аккаунты на форумах, вроде раскачал аккаунт, а тут появляется ресурс в 100 раз круче но тоже с системой прокачки и снова качать аккаунт...
    Предлагаем вам перенести Ваши заслуги на другом подобном ресурсе к нам.
    Подробности описаны тут -> ссылка
  • Вы можете получать по 2.5% с каждой покупки и продажи на маркете! Подробности в теме Партнёрская программа
Если Вы не хотите скачивать, Вы всегда можетепосмотретьонлайн, просто нажмите кнопку ниже :

Открыть плеер

Torrent_Bot

Торрент-Бот
Бот форума
4 Окт 2016
93
160
20

Название: Суд присяжных
Оригинальное название: Trial by Jury
Год выхода: 1994
Страна: США
Студия: Morgan Creek Entertainment
Продолжительность: 01:46:32
Жанр: триллер, драма, криминал

Режиссер: Хейвуд Гулд
В ролях: Джоэнн Уэлли, Арманд Ассанте, Гэбриел Бирн, Уильям Хёрт, Кэтлин Куинлен, Маргарет Уиттон, Эд Лотер, Ричард Портноу, Лиза Арринделл Андерсон, Джек Гуолтни, ...

Перевод:
- Профессиональный (двухголосый, закадровый) Екатеринбург-Арт
- Авторский (одноголосый, закадровый) Пронин Антон

О фильме: Мафиозный босс Пироне обвиняется в убийстве 11 человек. Но хотя улик против него более чем достаточно, он уверен в себе. Накануне процесса его люди убивают главного свидетеля обвинения, и прокурор Грэм должен вести дело на основании косвенных улик.
Однако все присяжные и так убеждены в виновности босса мафии. И тогда в дело вступает бывший полицейский Визи, работающий на Пироне. Используя свой богатый профессиональный опыт, Визи запугивает одну из присяжных, Валери Олстон.
Ее единственный шанс остаться в живых – научиться играть по смертельно опасным правилам… и победить…



Кодек: x264
Качество: BDRip 1080p
Видео: 1920x1036, 14000 kbps, 23,976 fps
Аудио #1: AC-3, 2 ch, 192 kbps (Rus) - DVO Екатеринбург-Арт
Аудио #2: AC-3, 2 ch, 192 kbps (Rus) - AVO Пронин Антон
Аудио #3: DTS, 2 ch, 1509 kbps (Eng)
Субтитры: английские

Дополнительная информация
За исходник спасибо - Spiellberg
MediaInfo
x264 [info]: frame I:902 Avg QP:15.88 size:236820
x264 [info]: frame P:29437 Avg QP:18.28 size:100248
x264 [info]: frame B:122930 Avg QP:20.23 size: 65218
x264 [info]: consecutive B-frames: 1.1% 1.3% 5.4% 13.9% 7.1% 55.2% 12.2% 2.4% 0.5% 0.2% 0.1% 0.1% 0.1% 0.1% 0.4%

Общее
Уникальный идентификатор : 196368337946795102014334257153943104748 (0x93BB2A8D4571EBD8BCBEDEC8B2A16CEC)
Полное имя : Суд присяжных (Trial by Jury) 1994 BDRip 1080p.mkv
Формат : Matroska
Версия формата : Version 2
Размер файла : 11,8 Гбайт
Продолжительность : 1 ч. 46 м.
Общий поток : 15,9 Мбит/сек
Дата кодирования : UTC 2020-08-15 19:51:11
Программа кодирования : mkvmerge v4.0.0 ('The Stars were mine') сборка от Jun 6 2010 16:18:42
Библиотека кодирования : libebml v1.0.0 + libmatroska v1.0.0

Видео
Идентификатор : 1
Формат : AVC
Формат/Информация : Advanced Video Codec
Профиль формата : [email protected]
Параметр CABAC формата : Да
Параметр ReFrames формата : 4 кадра
Идентификатор кодека : V_MPEG4/ISO/AVC
Продолжительность : 1 ч. 46 м.
Битрейт : 14,0 Мбит/сек
Ширина : 1920 пикселей
Высота : 1036 пикселей
Соотношение сторон : 1,85:1
Режим частоты кадров : Постоянный
Частота кадров : 23,976 (24000/1001) кадра/сек
Цветовое пространство : YUV
Субдискретизация насыщенности : 4:2:0
Битовая глубина : 8 бит
Тип развёртки : Прогрессивная
Бит/(Пиксели*Кадры) : 0.294
Размер потока : 10,2 Гбайт (86%)
Библиотека кодирования : x264 core 146 r2538 121396c
Настройки программы : cabac=1 / ref=4 / deblock=1:-1:-1 / analyse=0x3:0x133 / me=umh / subme=11 / psy=1 / psy_rd=1.00:0.00 / mixed_ref=1 / me_range=32 / chroma_me=1 / trellis=2 / 8x8dct=1 / cqm=0 / deadzone=21,11 / fast_pskip=0 / chroma_qp_offset=-2 / threads=12 / lookahead_threads=2 / sliced_threads=0 / nr=0 / decimate=0 / interlaced=0 / bluray_compat=0 / constrained_intra=0 / bframes=14 / b_pyramid=2 / b_adapt=2 / b_bias=0 / direct=3 / weightb=1 / open_gop=0 / weightp=2 / keyint=240 / keyint_min=23 / scenecut=40 / intra_refresh=0 / rc=2pass / mbtree=0 / bitrate=14000 / ratetol=1.0 / qcomp=0.60 / qpmin=0 / qpmax=69 / qpstep=4 / cplxblur=20.0 / qblur=0.5 / ip_ratio=1.40 / pb_ratio=1.30 / aq=2:0.80
Язык : English
Default : Нет
Forced : Нет

Аудио #1
Идентификатор : 2
Формат : AC-3
Формат/Информация : Audio Coding 3
Расширение режима : CM (complete main)
Параметр Endianness формата : Big
Идентификатор кодека : A_AC3
Продолжительность : 1 ч. 46 м.
Вид битрейта : Постоянный
Битрейт : 192 Кбит/сек
Каналы : 2 канала
Расположение каналов : Front: L R
Частота : 48,0 КГц
Частота кадров : 31,250 кадров/сек (1536 spf)
Метод сжатия : С потерями
Размер потока : 146 Мбайт (1%)
Заголовок : DVO Екатеринбург-Арт
Язык : Russian
Default : Нет
Forced : Нет

Аудио #2
Идентификатор : 3
Формат : AC-3
Формат/Информация : Audio Coding 3
Расширение режима : CM (complete main)
Параметр Endianness формата : Big
Идентификатор кодека : A_AC3
Продолжительность : 1 ч. 46 м.
Вид битрейта : Постоянный
Битрейт : 192 Кбит/сек
Каналы : 2 канала
Расположение каналов : Front: L R
Частота : 48,0 КГц
Частота кадров : 31,250 кадров/сек (1536 spf)
Метод сжатия : С потерями
Размер потока : 146 Мбайт (1%)
Заголовок : AVO Пронин Антон
Язык : Russian
Default : Нет
Forced : Нет

Аудио #3
Идентификатор : 4
Формат : DTS
Формат/Информация : Digital Theater Systems
Режим : 16
Параметр Endianness формата : Big
Идентификатор кодека : A_DTS
Продолжительность : 1 ч. 46 м.
Вид битрейта : Постоянный
Битрейт : 1509 Кбит/сек
Каналы : 2 канала
Расположение каналов : Front: L R
Частота : 48,0 КГц
Частота кадров : 93,750 кадра/сек (512 spf)
Битовая глубина : 24 бит
Метод сжатия : С потерями
Размер потока : 1,12 Гбайт (9%)
Язык : English
Default : Нет
Forced : Нет

Текст #1
Идентификатор : 5
Формат : UTF-8
Идентификатор кодека : S_TEXT/UTF8
Идентификатор кодека/Информация : UTF-8 Plain Text
Язык : English
Default : Нет
Forced : Нет

Текст #2
Идентификатор : 6
Формат : UTF-8
Идентификатор кодека : S_TEXT/UTF8
Идентификатор кодека/Информация : UTF-8 Plain Text
Заголовок : SDH
Язык : English
Default : Нет
Forced : Нет

Меню
00:00:00.000 : en:Chapter 01
00:10:01.434 : en:Chapter 02
00:20:01.700 : en:Chapter 03
00:30:02.759 : en:Chapter 04
00:40:02.775 : en:Chapter 05
00:50:03.709 : en:Chapter 06
01:00:04.142 : en:Chapter 07
01:10:04.825 : en:Chapter 08
01:20:04.883 : en:Chapter 09
01:30:05.733 : en:Chapter 10
01:40:06.166 : en:Chapter 11

 

Вложения

  • 60,1 KB Просмотры: 0
    Личеров 0
    Сидеров 0
    Файлов 1
    Объем 11,8 GB

Привет!

Мы группа людей которые решили помочь другим в решении их проблем, а так же пользователям с поиском самых свежих и качественных инфопродуктов. За 4 с небольшим месяца мы создали этот форум на который заходят ежедневно тысячи человек и посещаемость постоянно растёт. Мы создали панель лицензирования для защиты PHP скриптов от воровства и SEO панель для мониторинга наших сайтов и выбора верной стратегии их развития. Мы надеемся что то что мы создали пригодится Вам и возможно Вы поможете нам развиваться и совершенствоваться вместе с Вами.

Статистика форума

Темы
406.605
Сообщения
465.028
Пользователи
84.394
Новый пользователь
millazzzzz

Приложения форума для iOS и Android


У ркн там нет власти ;)
Приватные разговоры
Помощь Пользователи
    Вы не присоединились ни к одной комнате.