За последнюю неделю опубликовано 52 новых материалов.
Инструкция новичку Путеводитель по форуму Прокси для Telegram Показать подсказки , это бомба!

Скачать Строгий юноша (1935) SATRip-AVC от KORSAR бесплатно через торрент

  • Поучаствуй (в качестве покупателя) в любых пяти совместных покупках (кроме завершённых и "Моментальных") и получи группу "Новичок" навсегда -> ссылка на раздел
  • Получай до 480 рублей за каждого приглашенного пользователя!
    представляем Вам очередное расширение партнерской программы, подробности описаны тут -> ссылка
  • 90% материалов доступно к скачиванию после простой регистрации!
    Если же ты хочешь скачивать материалы без требования оставлять отзывы то получи группу "Новичок", 10 способов повышения описаны тут -> ссылка
  • К сожалению количество битых ссылок растет и мы уже не можем их оперативно восстанавливать поэтому просим помощи у каждого нашего пользователя.
    С сегодняшнего дня, за каждую восстановленную ссылку мы заплатим Вам.
    Подробнее тут -> ссылка
  • Перенесем твои заслуги с другого ресурса!
    Мы понимаем как сложно прокачивать аккаунты на форумах, вроде раскачал аккаунт, а тут появляется ресурс в 100 раз круче но тоже с системой прокачки и снова качать аккаунт...
    Предлагаем вам перенести Ваши заслуги на другом подобном ресурсе к нам.
    Подробности описаны тут -> ссылка
  • Вы можете получать по 2.5% с каждой покупки и продажи на маркете! Подробности в теме Партнёрская программа
Если Вы не хотите скачивать, Вы всегда можетепосмотретьонлайн, просто нажмите кнопку ниже :

Открыть плеер

Torrent_Bot

Торрент-Бот
Бот форума
4 Окт 2016
93
160
20


Строгий юноша
Жанр: драма, экранизация
Год выпуска: 1935
Режиссер: Абрам Роом
В ролях: Юрий Юрьев, Ольга Жизнева, Дмитрий Дорлиак, Максим Штраух, Дмитрий Консовский, Валентина Серова, Георгий Сочевко, Ирина Володко, Александр Чистяков, Дмитрий Голубинский, Екатерина Мельникова, Екатерина Гурейкина, Иван Кононенко-Козельский, Иван Коваль-Самборский, Пётр Репнин

О фильме:
Философско-романтическая драма о любви и ревности в наступающем идеальном бесклассовом обществе по одноименной кинопьесе Ю. К. Олеши.
В кинопьесе «Строгий юноша» Олеша попытался создать тип нового молодого героя, человека, наделенного лучшими физическими и духовными свойствами нескольких поколений молодежи. Однако фигура героя кинопьесы Гриши Фокина получилась в значительной степени умозрительной и не слишком жизнеспособной.
Один из интереснейших фильмов советского кино 30-х годов.
В 1936 году фильм был запрещен. Начиная с середины 60-х годов появился на экранах, сначала маленьких просмотровых залов ВГИКа, а затем вышел на экраны творческих домов. В 1974 году по праву занял место в ретроспективе фильмов Роома, посвященной его 80-летию.



Страна: СССР
Производство: Украинфильм
Продолжительность: 01:34:43
Перевод: Не требуется

Файл
Формат: MKV
Качество: SATRip-AVC
Видео: MPEG-4 AVC, [email protected], 25 fps, 4102 Кбит/с
Аудио: Русский, MPEG Audio, 2 ch, 192 Кбит/с
Cубтитры: нет
Навигация по главам: нет

Mediainfo
x264 [info]: frame I:716 Avg QP:17.37 size: 86896
x264 [info]: frame P:52407 Avg QP:18.95 size: 41629
x264 [info]: frame B:88963 Avg QP:22.06 size: 7533
x264 [info]: consecutive B-frames: 14.1% 8.9% 19.3% 27.0% 18.5% 11.0% 1.1% 0.2% 0.0% 0.0% 0.0%

General
Unique ID : 115397013743705401860399497143728384254 (0x56D0A80B8BEC633D72C385C62246A8FE)
Complete name : S:FILMSСтрогий юноша (1935) SATRip-AVC - KORSAR.mkv
Format : Matroska
Format version : Version 4 / Version 2
File size : 2.84 GiB
Duration : 1 h 34 min
Overall bit rate : 4 296 kb/s
Movie name : Строгий юноша (1935)_KORSAR
Encoded date : UTC 2020-08-04 16:28:45
Writing application : mkvmerge v46.0.0 ('No Deeper Escape') 64-bit
Writing library : libebml v1.3.10 + libmatroska v1.5.2
Cover : Yes
Attachments : cover6.jpg

Video
ID : 1
Format : AVC
Format/Info : Advanced Video Codec
Format profile : [email protected]
Format settings : CABAC / 16 Ref Frames
Format settings, CABAC : Yes
Format settings, ReFrames : 16 frames
Codec ID : V_MPEG4/ISO/AVC
Duration : 1 h 34 min
Bit rate : 4 102 kb/s
Width : 696 pixels
Height : 572 pixels
Display aspect ratio : 4:3
Frame rate mode : Constant
Frame rate : 25.000 FPS
Color space : YUV
Chroma subsampling : 4:2:0
Bit depth : 8 bits
Scan type : Progressive
Bits/(Pixel*Frame) : 0.412
Stream size : 2.71 GiB (95%)
Writing library : x264 core 152 r2851kMod ba24899
Encoding settings : cabac=1 / ref=16 / deblock=1:-1:-1 / analyse=0x3:0x133 / me=umh / subme=10 / psy=1 / fade_compensate=0.00 / psy_rd=1.05:0.08 / mixed_ref=1 / me_range=32 / chroma_me=1 / trellis=2 / 8x8dct=1 / cqm=0 / deadzone=21,11 / fast_pskip=0 / chroma_qp_offset=-3 / threads=18 / lookahead_threads=4 / sliced_threads=0 / nr=0 / decimate=1 / interlaced=0 / bluray_compat=0 / constrained_intra=0 / bframes=10 / b_pyramid=2 / b_adapt=2 / b_bias=0 / direct=3 / weightb=1 / open_gop=0 / weightp=2 / keyint=250 / keyint_min=25 / scenecut=40 / intra_refresh=0 / rc_lookahead=60 / rc=crf / mbtree=0 / crf=18.0000 / qcomp=0.63 / qpmin=0 / qpmax=39 / qpstep=4 / vbv_maxrate=50000 / vbv_bufsize=62500 / crf_max=0.0 / nal_hrd=none / filler=0 / ip_ratio=1.40 / pb_ratio=1.30 / aq=2:0.80
Language : Russian
Default : Yes
Forced : No
Color range : Limited
Color primaries : BT.601 PAL
Transfer characteristics : BT.470 System B/G
Matrix coefficients : BT.470 System B/G

Audio
ID : 2
Format : MPEG Audio
Format version : Version 1
Format profile : Layer 2
Codec ID : A_MPEG/L2
Codec ID/Hint : MP2
Duration : 1 h 34 min
Bit rate mode : Constant
Bit rate : 192 kb/s
Channel(s) : 2 channels
Sampling rate : 48.0 kHz
Frame rate : 41.667 FPS (1152 SPF)
Compression mode : Lossy
Stream size : 130 MiB (4%)
Language : Russian
Default : Yes
Forced : No
Скриншоты


Релиз от: Cthulhu
 

Вложения

  • 15,3 KB Просмотры: 0
    Личеров 0
    Сидеров 0
    Файлов 1
    Объем 2,8 GB

Привет!

Мы группа людей которые решили помочь другим в решении их проблем, а так же пользователям с поиском самых свежих и качественных инфопродуктов. За 4 с небольшим месяца мы создали этот форум на который заходят ежедневно тысячи человек и посещаемость постоянно растёт. Мы создали панель лицензирования для защиты PHP скриптов от воровства и SEO панель для мониторинга наших сайтов и выбора верной стратегии их развития. Мы надеемся что то что мы создали пригодится Вам и возможно Вы поможете нам развиваться и совершенствоваться вместе с Вами.

Статистика форума

Темы
406.648
Сообщения
465.113
Пользователи
84.625
Новый пользователь
kris_kelt

Приложения форума для iOS и Android


У ркн там нет власти ;)
Приватные разговоры
Помощь Пользователи
    Вы не присоединились ни к одной комнате.