За последнюю неделю опубликовано 49 новых материалов.
Инструкция новичку Путеводитель по форуму Прокси для Telegram Показать подсказки , это бомба!

Скачать Стрелок / The Gunfighter (1950) BDRip-AVC | P, A бесплатно через торрент

  • Поучаствуй (в качестве покупателя) в любых пяти совместных покупках (кроме завершённых и "Моментальных") и получи группу "Новичок" навсегда -> ссылка на раздел
  • Получай до 480 рублей за каждого приглашенного пользователя!
    представляем Вам очередное расширение партнерской программы, подробности описаны тут -> ссылка
  • 90% материалов доступно к скачиванию после простой регистрации!
    Если же ты хочешь скачивать материалы без требования оставлять отзывы то получи группу "Новичок", 10 способов повышения описаны тут -> ссылка
  • К сожалению количество битых ссылок растет и мы уже не можем их оперативно восстанавливать поэтому просим помощи у каждого нашего пользователя.
    С сегодняшнего дня, за каждую восстановленную ссылку мы заплатим Вам.
    Подробнее тут -> ссылка
  • Перенесем твои заслуги с другого ресурса!
    Мы понимаем как сложно прокачивать аккаунты на форумах, вроде раскачал аккаунт, а тут появляется ресурс в 100 раз круче но тоже с системой прокачки и снова качать аккаунт...
    Предлагаем вам перенести Ваши заслуги на другом подобном ресурсе к нам.
    Подробности описаны тут -> ссылка
  • Вы можете получать по 2.5% с каждой покупки и продажи на маркете! Подробности в теме Партнёрская программа
Если Вы не хотите скачивать, Вы всегда можетепосмотретьонлайн, просто нажмите кнопку ниже :

Открыть плеер

Torrent_Bot

Торрент-Бот
Бот форума
4 Окт 2016
93
160
20


«RINGO WAS HIS NAME! THE CHALLENGE OF EVERY OUTLAW GUNMAN! THE NOTORIOUS SELF-DEFENSE KILLER!»


Информация о фильме
Название: Стрелок
Оригинальное название: The Gunfighter
Год выхода: 1950
Жанр: Вестерн
Режиссер: Генри Кинг
В ролях: Грегори Пек, Хелен Весткотт, Миллард Митчелл, Джин Паркер, Карл Молден, Скип Хомейер, Энтони Росс, Верна Фелтон, Эллен Корби, Ричард Джэкел

О фильме:
Джимми Ринго - человек легенда, самый быстрый стрелок на Диком Западе. Он не стар, но уже утомлен жизнью. Дело в том, что он не может спокойно остановиться ни в одном городе.

Везде его преследует, слава самого крутого стрелка. И в каждом салуне находится, какой-нибудь ковбой, который хочет проверить: так ли уж он хорош, как об этом разносит молва. Вот и приходится Джимми убивать, увивать и убивать. В итоге находится один «отморозок», который подло убивает Ринго выстрелом в спину. Его за это не вешают. Но! На него переходит проклятие «самого-кругого-стрелка-убившего-Джимми-Ринго». С этого момента его тоже будут хотеть убить каждом салуне Дикого Запада...



Страна: США
Студия: 20th Century Fox Film Corporation
Продолжительность: 01:24:33
Перевод:
• Профессиональный (многоголосый, закадровый) | REN-TV
• Авторский (одноголосый, закадровый) | Петр Карцев

Файл
Качество: BDRip-AVC
Исходник: The Gunfighter 1950 1080p BluRay REMUX AVC FLAC 2 0-EPSiLON
Формат: MKV
Кодек: MPEG-4 AVC
Видео: 720x540 (4:3), 23,976 fps, MPEG-4 AVC ~ 2890 Кbps avg, 0.310 bit/pixel
Аудио: AC3, 48 kHz, 2 ch, ~192.00 kbps avg | русский | REN-TV
Аудио: AC3, 48 kHz, 2 ch, ~192.00 kbps avg | русский | Карцев
Аудио: AC3, 48 kHz, 2 ch, ~192.00 kbps avg | английский | Оригинал
Субтитры: Английские (Full)

Инфо-файл
Общее
Уникальный идентификатор : 4689262140720210731776628789850148132 (0x3871E793BFEAA700FC7E09FCF280D24)
Полное имя : The.Gunfighter.1950.BDRip.2.05Gb.x264.mkv
Формат : Matroska
Версия формата : Version 4
Размер файла : 2,05 Гбайт
Продолжительность : 1 ч. 24 м.
Общий поток : 3 468 Кбит/сек
Название фильма : Стрелок / The Gunfighter (1950)
Дата кодирования : UTC 2020-08-22 16:19:19
Программа кодирования : mkvmerge v47.0.0 ('Black Flag') 64-bit
Библиотека кодирования : libebml v1.3.10 + libmatroska v1.5.2
Обложка : Yes
Attachments : cover.jpg

Видео
Идентификатор : 1
Формат : AVC
Формат/Информация : Advanced Video Codec
Профиль формата : [email protected]
Настройки формата : CABAC / 9 Ref Frames
Параметр CABAC формата : Да
Параметр RefFrames формата : 9 кадров
Идентификатор кодека : V_MPEG4/ISO/AVC
Продолжительность : 1 ч. 24 м.
Битрейт : 2 890 Кбит/сек
Ширина : 720 пикселей
Высота : 540 пикселей
Соотношение сторон : 4:3
Режим частоты кадров : Постоянный
Частота кадров : 23,976 кадра/сек
Цветовое пространство : YUV
Субдискретизация насыщенности : 4:2:0
Битовая глубина : 8 бит
Тип развёртки : Прогрессивная
Бит/(Пиксели*Кадры) : 0.310
Размер потока : 1,71 Гбайт (83%)
Заголовок : #stillet
Библиотека кодирования : x264 core 152 r2851bm ba24899
Настройки программы : cabac=1 / ref=9 / deblock=1:-2:-2 / analyse=0x3:0x113 / me=umh / subme=10 / psy=1 / psy_rd=1.00:0.15 / mixed_ref=1 / me_range=32 / chroma_me=1 / trellis=2 / 8x8dct=1 / cqm=0 / deadzone=21,11 / fast_pskip=0 / chroma_qp_offset=-3 / threads=8 / lookahead_threads=3 / sliced_threads=0 / nr=0 / decimate=0 / interlaced=0 / bluray_compat=0 / constrained_intra=0 / bframes=10 / b_pyramid=2 / b_adapt=2 / b_bias=0 / direct=3 / weightb=1 / open_gop=0 / weightp=2 / keyint=240 / keyint_min=23 / scenecut=40 / intra_refresh=0 / rc=2pass / mbtree=0 / bitrate=2890 / ratetol=1.0 / qcomp=0.60 / qpmin=0 / qpmax=69 / qpstep=4 / cplxblur=20.0 / qblur=0.5 / ip_ratio=1.40 / pb_ratio=1.30 / aq=1:1.00
Язык : English
Default : Да
Forced : Нет

Аудио #1
Идентификатор : 2
Формат : AC-3
Формат/Информация : Audio Coding 3
Коммерческое название : Dolby Digital
Идентификатор кодека : A_AC3
Продолжительность : 1 ч. 24 м.
Вид битрейта : Постоянный
Битрейт : 192 Кбит/сек
Каналы : 2 канала
Channel layout : L R
Частота : 48,0 КГц
Частота кадров : 31,250 кадров/сек (1536 SPF)
Метод сжатия : С потерями
Размер потока : 116 Мбайт (6%)
Заголовок : MVO | Ren TV
Язык : Russian
Service kind : Complete Main
Default : Да
Forced : Нет

Аудио #2
Идентификатор : 3
Формат : AC-3
Формат/Информация : Audio Coding 3
Коммерческое название : Dolby Digital
Идентификатор кодека : A_AC3
Продолжительность : 1 ч. 24 м.
Вид битрейта : Постоянный
Битрейт : 192 Кбит/сек
Каналы : 2 канала
Channel layout : L R
Частота : 48,0 КГц
Частота кадров : 31,250 кадров/сек (1536 SPF)
Метод сжатия : С потерями
Размер потока : 116 Мбайт (6%)
Заголовок : AVO | Петр Карцев
Язык : Russian
Service kind : Complete Main
Default : Нет
Forced : Нет

Аудио #3
Идентификатор : 4
Формат : AC-3
Формат/Информация : Audio Coding 3
Коммерческое название : Dolby Digital
Идентификатор кодека : A_AC3
Продолжительность : 1 ч. 24 м.
Вид битрейта : Постоянный
Битрейт : 192 Кбит/сек
Каналы : 2 канала
Channel layout : L R
Частота : 48,0 КГц
Частота кадров : 31,250 кадров/сек (1536 SPF)
Метод сжатия : С потерями
Размер потока : 116 Мбайт (6%)
Язык : English
Service kind : Complete Main
Default : Нет
Forced : Нет

Текст
Идентификатор : 5
Формат : UTF-8
Идентификатор кодека : S_TEXT/UTF8
Идентификатор кодека/Информация : UTF-8 Plain Text
Продолжительность : 1 ч. 20 м.
Битрейт : 78 бит/сек
Count of elements : 1006
Размер потока : 46,5 Кбайт (0%)
Заголовок : Full
Язык : English
Default : Нет
Forced : Нет

Меню
00:00:00.000 : en:Chapter 1
00:02:17.471 : en:Chapter 2
00:10:03.686 : en:Chapter 3
00:14:28.242 : en:Chapter 4
00:21:35.878 : en:Chapter 5
00:28:17.946 : en:Chapter 6
00:35:28.376 : en:Chapter 7
00:42:00.101 : en:Chapter 8
00:50:53.259 : en:Chapter 9
01:00:24.538 : en:Chapter 10
01:12:16.999 : en:Chapter 11
Скриншоты
 

Вложения

  • 11,1 KB Просмотры: 0
    Личеров 0
    Сидеров 0
    Файлов 1
    Объем 2 GB

Привет!

Мы группа людей которые решили помочь другим в решении их проблем, а так же пользователям с поиском самых свежих и качественных инфопродуктов. За 4 с небольшим месяца мы создали этот форум на который заходят ежедневно тысячи человек и посещаемость постоянно растёт. Мы создали панель лицензирования для защиты PHP скриптов от воровства и SEO панель для мониторинга наших сайтов и выбора верной стратегии их развития. Мы надеемся что то что мы создали пригодится Вам и возможно Вы поможете нам развиваться и совершенствоваться вместе с Вами.

Статистика форума

Темы
406.640
Сообщения
465.116
Пользователи
84.570
Новый пользователь
Azari666

Приложения форума для iOS и Android


У ркн там нет власти ;)
Приватные разговоры
Помощь Пользователи
    Вы не присоединились ни к одной комнате.