За последнюю неделю опубликовано 68 новых материалов.
Инструкция новичку Путеводитель по форуму Прокси для Telegram Показать подсказки , это бомба!

Скачать Стрекоза / Dragonfly (2002) WEB-DLRip | D бесплатно через торрент

  • Поучаствуй (в качестве покупателя) в любых пяти совместных покупках (кроме завершённых и "Моментальных") и получи группу "Новичок" навсегда -> ссылка на раздел
  • Получай до 480 рублей за каждого приглашенного пользователя!
    представляем Вам очередное расширение партнерской программы, подробности описаны тут -> ссылка
  • 90% материалов доступно к скачиванию после простой регистрации!
    Если же ты хочешь скачивать материалы без требования оставлять отзывы то получи группу "Новичок", 10 способов повышения описаны тут -> ссылка
  • К сожалению количество битых ссылок растет и мы уже не можем их оперативно восстанавливать поэтому просим помощи у каждого нашего пользователя.
    С сегодняшнего дня, за каждую восстановленную ссылку мы заплатим Вам.
    Подробнее тут -> ссылка
  • Перенесем твои заслуги с другого ресурса!
    Мы понимаем как сложно прокачивать аккаунты на форумах, вроде раскачал аккаунт, а тут появляется ресурс в 100 раз круче но тоже с системой прокачки и снова качать аккаунт...
    Предлагаем вам перенести Ваши заслуги на другом подобном ресурсе к нам.
    Подробности описаны тут -> ссылка
  • Вы можете получать по 2.5% с каждой покупки и продажи на маркете! Подробности в теме Партнёрская программа
Если Вы не хотите скачивать, Вы всегда можетепосмотретьонлайн, просто нажмите кнопку ниже :

Открыть плеер

Torrent_Bot

Торрент-Бот
Бот форума
4 Окт 2016
82
186
20



Информация о фильме
Название: Стрекоза
Оригинальное название: Dragonfly
Год выхода: 2002
Жанр: Фэнтези, Триллер, Драма, Мелодрама, Детектив
Режиссер: Том Шэдьяк
В ролях: Кевин Костнер, Сюзанна Томпсон, Джо Мортон, Рон Рифкин, Кэти Бейтс, Роберт Бэйли мл., Джейкоб Смит, Джей Томас, Лиза Бейнс, Мэтт Крэйвен

О фильме:
После трагической гибели в горах Венесуэлы доктора Эмили Дэрроу в жизни её мужа Джо, работавшего с ней в одной больнице, начинают происходить необъяснимые события. Больные дети, которых лечила Эмили, утверждают, что она является им в видениях, пытаясь сообщить что-то важное. Загадочные знаки и пугающие послания неотступно преследуют Джо, и вскоре он убеждает себя, что сумеет разгадать их тайный смысл, только если отправится туда, где его жена рассталась с жизнью…



Страна: США, Германия
Студия: Gran Via, Kalima Productions GmbH & Co. KG, NDE Productions, Shady Acres Entertainment, Spyglass Entertainment, Universal Pictures
Продолжительность: 01:44:08
Перевод: Дублированный
Субтитры: Нет

Файл
Формат: AVI
Качество: WEB-DLRip | [1080p.WEB-DL.DD+5.1.H.264-SpaceHD13]
Видео: 720x400 at 23.976 fps, XviD, ~1545 kbps
Аудио: AC3, 6 ch, ~448 kbps - | Русский | -

***Релиз от:-=DoMiNo=-

M/I
General
Complete name : Стрекоза.(2002).WEB-DLRip.F.S.[-=DoMiNo=-].avi
Format : AVI
Format/Info : Audio Video Interleave
Format profile : OpenDML
File size : 1.46 GiB
Duration : 1 h 44 min
Overall bit rate : 2 005 kb/s

Video
ID : 0
Format : MPEG-4 Visual
Format profile : Advanced [email protected]
Format settings : BVOP2 / Custom Matrix
Format settings, BVOP : 2
Format settings, QPel : No
Format settings, GMC : No warppoints
Format settings, Matrix : Custom
Codec ID : XVID
Codec ID/Hint : XviD
Duration : 1 h 44 min
Bit rate : 1 545 kb/s
Width : 720 pixels
Height : 400 pixels
Display aspect ratio : 16:9
Frame rate : 23.976 (24000/1001) FPS
Color space : YUV
Chroma subsampling : 4:2:0
Bit depth : 8 bits
Scan type : Progressive
Compression mode : Lossy
Bits/(Pixel*Frame) : 0.224
Stream size : 1.12 GiB (77%)
Writing library : XviD 67

Audio
ID : 1
Format : AC-3
Format/Info : Audio Coding 3
Commercial name : Dolby Digital
Codec ID : 2000
Duration : 1 h 44 min
Bit rate mode : Constant
Bit rate : 448 kb/s
Channel(s) : 6 channels
Channel layout : L R C LFE Ls Rs
Sampling rate : 48.0 kHz
Frame rate : 31.250 FPS (1536 SPF)
Bit depth : 16 bits
Compression mode : Lossy
Stream size : 334 MiB (22%)
Alignment : Aligned on interleaves
Interleave, duration : 32 ms (0.77 video frame)
Service kind : Complete Main
Скриншоты
 

Вложения

  • 15,7 KB Просмотры: 1
    Личеров 0
    Сидеров 0
    Файлов 1
    Объем 1,5 GB

Привет!

Мы группа людей которые решили помочь другим в решении их проблем, а так же пользователям с поиском самых свежих и качественных инфопродуктов. За 4 с небольшим месяца мы создали этот форум на который заходят ежедневно тысячи человек и посещаемость постоянно растёт. Мы создали панель лицензирования для защиты PHP скриптов от воровства и SEO панель для мониторинга наших сайтов и выбора верной стратегии их развития. Мы надеемся что то что мы создали пригодится Вам и возможно Вы поможете нам развиваться и совершенствоваться вместе с Вами.

Статистика форума

Темы
412.187
Сообщения
471.235
Пользователи
91.689
Новый пользователь
ghgg3

Приложения форума для iOS и Android


У ркн там нет власти ;)
Приватные разговоры
Помощь Пользователи
    Вы не присоединились ни к одной комнате.