За последнюю неделю опубликовано 30 новых материалов.
Инструкция новичку Путеводитель по форуму Прокси для Telegram Показать подсказки , это бомба!

Скачать Страна ОЗ (2015) WEB-DLRip-AVC | iTunes бесплатно через торрент

  • Поучаствуй (в качестве покупателя) в любых пяти совместных покупках (кроме завершённых и "Моментальных") и получи группу "Новичок" навсегда -> ссылка на раздел
  • Получай до 480 рублей за каждого приглашенного пользователя!
    представляем Вам очередное расширение партнерской программы, подробности описаны тут -> ссылка
  • 90% материалов доступно к скачиванию после простой регистрации!
    Если же ты хочешь скачивать материалы без требования оставлять отзывы то получи группу "Новичок", 10 способов повышения описаны тут -> ссылка
  • К сожалению количество битых ссылок растет и мы уже не можем их оперативно восстанавливать поэтому просим помощи у каждого нашего пользователя.
    С сегодняшнего дня, за каждую восстановленную ссылку мы заплатим Вам.
    Подробнее тут -> ссылка
  • Перенесем твои заслуги с другого ресурса!
    Мы понимаем как сложно прокачивать аккаунты на форумах, вроде раскачал аккаунт, а тут появляется ресурс в 100 раз круче но тоже с системой прокачки и снова качать аккаунт...
    Предлагаем вам перенести Ваши заслуги на другом подобном ресурсе к нам.
    Подробности описаны тут -> ссылка
  • Вы можете получать по 2.5% с каждой покупки и продажи на маркете! Подробности в теме Партнёрская программа
Если Вы не хотите скачивать, Вы всегда можетепосмотретьонлайн, просто нажмите кнопку ниже :

Открыть плеер

Torrent_Bot

Торрент-Бот
Бот форума
4 Окт 2016
93
160
20

Информация о фильме
Название: Страна ОЗ
Оригинальное название: Страна ОЗ
Год выхода: 2015
Жанр: комедия
Режиссер: Василий Сигарев
В ролях: Яна Троянова, Гоша Куценко, Андрей Ильенков, Александр Баширов, Евгений Цыганов, Владимир Симонов, Инна Чурикова, Светлана Камынина, Юлия Снигирь, Алиса Хазанова

О фильме:
Новый год в России — стихия неуправляемая и беспощадная. Именно в это волшебное время непостижимый колорит русской души проявляет себя во всей красе. Пока жители Екатеринбурга готовятся к главному национальному празднику и шинкуют оливье, Ленка Шабадинова спешит до боя курантов принять смену в киоске на улице Торфорезов. Но она даже не подозревает, что новогодняя ночь приготовила для нее свой безумный сценарий.



Выпущено: Россия
Продолжительность: 01:39:48
Перевод: Оригинал | iTunes (присутствуетненормативнаялексика!)
Субтитры: Нет

Файл
Формат: Matroska
Качество: WEB-DLRip-AVC
Видео: 722x388 at 24.00 fps, [email protected], ~979 kbps, 0.146 bpp
Аудио: AAC, 2 ch, ~64 kbps

***Релиз от:-=DoMiNo=-

M/I
x264 [info]: frame I:803 Avg QP:17.49 size: 36547
x264 [info]: frame P:36408 Avg QP:19.41 size: 11558
x264 [info]: frame B:106501 Avg QP:21.00 size: 2601
x264 [info]: consecutive B-frames: 2.0% 5.0% 5.6% 59.3% 9.4% 12.4% 2.5% 2.2% 0.6% 0.5%

General
Format : Matroska
Format version : Version 4
File size : 744 MiB
Duration : 1 h 39 min
Overall bit rate : 1 042 kb/s
Movie name : Страна ОЗ.(2015).WEB-DLRip-AVC.[-=DoMiNo=-]
Encoded date : UTC 2020-07-17 19:18:44
Writing application : mkvmerge v48.0.0 ('Fortress Around Your Heart') 64-bit
Writing library : libebml v1.4.0 + libmatroska v1.6.0
Cover : Yes
Attachments : Cover.jpg / Cover 2.jpg

Video
ID : 1
Format : AVC
Format/Info : Advanced Video Codec
Format profile : [email protected]
Format settings : CABAC / 12 Ref Frames
Format settings, CABAC : Yes
Format settings, Reference : 12 frames
Codec ID : V_MPEG4/ISO/AVC
Duration : 1 h 39 min
Bit rate : 979 kb/s
Width : 722 pixels
Height : 388 pixels
Display aspect ratio : 1.85:1
Frame rate mode : Constant
Frame rate : 24.000 FPS
Color space : YUV
Chroma subsampling : 4:2:0
Bit depth : 8 bits
Scan type : Progressive
Bits/(Pixel*Frame) : 0.146
Stream size : 698 MiB (94%)
Title : -=DoMiNo=-
Writing library : x264 core 161 r3018 db0d417
Encoding settings : cabac=1 / ref=12 / deblock=1:-3:-3 / analyse=0x3:0x133 / me=umh / subme=11 / psy=1 / psy_rd=1.00:0.15 / mixed_ref=1 / me_range=32 / chroma_me=1 / trellis=2 / 8x8dct=1 / cqm=0 / deadzone=21,11 / fast_pskip=0 / chroma_qp_offset=-3 / threads=6 / lookahead_threads=1 / sliced_threads=0 / nr=0 / decimate=0 / interlaced=0 / bluray_compat=0 / constrained_intra=0 / bframes=9 / b_pyramid=2 / b_adapt=2 / b_bias=0 / direct=3 / weightb=1 / open_gop=0 / weightp=2 / keyint=250 / keyint_min=24 / scenecut=40 / intra_refresh=0 / rc_lookahead=60 / rc=2pass / mbtree=0 / bitrate=979 / ratetol=1.0 / qcomp=0.70 / qpmin=0 / qpmax=69 / qpstep=4 / cplxblur=20.0 / qblur=0.5 / vbv_maxrate=50000 / vbv_bufsize=62500 / nal_hrd=none / filler=0 / ip_ratio=1.40 / pb_ratio=1.30 / aq=1:1.00
Language : Russian
Default : Yes
Forced : No
Color range : Limited
Color primaries : BT.709
Transfer characteristics : BT.709
Matrix coefficients : BT.709

Audio
ID : 2
Format : AAC LC SBR
Format/Info : Advanced Audio Codec Low Complexity with Spectral Band Replication
Commercial name : HE-AAC
Format settings : Explicit
Codec ID : A_AAC-2
Duration : 1 h 39 min
Bit rate : 62.7 kb/s
Channel(s) : 2 channels
Channel layout : L R
Sampling rate : 48.0 kHz
Frame rate : 23.438 FPS (2048 SPF)
Compression mode : Lossy
Delay relative to video : 3 ms
Stream size : 44.7 MiB (6%)
Language : Russian
Default : Yes
Forced : No

Menu
00:00:00.000 : en:Глава 1
00:05:34.000 : en:Глава 2
00:11:06.000 : en:Глава 3
00:18:00.000 : en:Глава 4
00:25:01.000 : en:Глава 5
00:30:02.000 : en:Глава 6
00:35:58.000 : en:Глава 7
00:41:20.000 : en:Глава 8
00:47:03.000 : en:Глава 9
00:54:18.000 : en:Глава 10
00:59:58.000 : en:Глава 11
01:05:34.000 : en:Глава 12
01:10:55.000 : en:Глава 13
01:16:00.000 : en:Глава 14
01:22:47.000 : en:Глава 15
01:28:12.000 : en:Глава 16
01:33:39.000 : en:Глава 17
Скриншоты
 

Вложения

  • 30,2 KB Просмотры: 0
    Личеров 0
    Сидеров 0
    Файлов 1
    Объем 743,7 MB

Привет!

Мы группа людей которые решили помочь другим в решении их проблем, а так же пользователям с поиском самых свежих и качественных инфопродуктов. За 4 с небольшим месяца мы создали этот форум на который заходят ежедневно тысячи человек и посещаемость постоянно растёт. Мы создали панель лицензирования для защиты PHP скриптов от воровства и SEO панель для мониторинга наших сайтов и выбора верной стратегии их развития. Мы надеемся что то что мы создали пригодится Вам и возможно Вы поможете нам развиваться и совершенствоваться вместе с Вами.

Статистика форума

Темы
406.605
Сообщения
465.025
Пользователи
84.385
Новый пользователь
SomeCat123

Приложения форума для iOS и Android


У ркн там нет власти ;)
Приватные разговоры
Помощь Пользователи
    Вы не присоединились ни к одной комнате.