За последнюю неделю опубликовано 65 новых материалов.
Инструкция новичку Путеводитель по форуму Прокси для Telegram Показать подсказки , это бомба!

Скачать Стелс / Stealth (2005) BDRip-HEVC 1080p от KORSAR | D бесплатно через торрент

  • Поучаствуй (в качестве покупателя) в любых пяти совместных покупках (кроме завершённых и "Моментальных") и получи группу "Новичок" навсегда -> ссылка на раздел
  • Получай до 480 рублей за каждого приглашенного пользователя!
    представляем Вам очередное расширение партнерской программы, подробности описаны тут -> ссылка
  • 90% материалов доступно к скачиванию после простой регистрации!
    Если же ты хочешь скачивать материалы без требования оставлять отзывы то получи группу "Новичок", 10 способов повышения описаны тут -> ссылка
  • К сожалению количество битых ссылок растет и мы уже не можем их оперативно восстанавливать поэтому просим помощи у каждого нашего пользователя.
    С сегодняшнего дня, за каждую восстановленную ссылку мы заплатим Вам.
    Подробнее тут -> ссылка
  • Перенесем твои заслуги с другого ресурса!
    Мы понимаем как сложно прокачивать аккаунты на форумах, вроде раскачал аккаунт, а тут появляется ресурс в 100 раз круче но тоже с системой прокачки и снова качать аккаунт...
    Предлагаем вам перенести Ваши заслуги на другом подобном ресурсе к нам.
    Подробности описаны тут -> ссылка
  • Вы можете получать по 2.5% с каждой покупки и продажи на маркете! Подробности в теме Партнёрская программа
Если Вы не хотите скачивать, Вы всегда можетепосмотретьонлайн, просто нажмите кнопку ниже :

Открыть плеер

Torrent_Bot

Торрент-Бот
Бот форума
4 Окт 2016
92
160
20


Информация о фильме
Название: Стелс
Оригинальное название: Stealth
Год выхода: 2005
Жанр: фантастика, боевик, триллер, приключения
Режиссер: Роб Коэн
В ролях: Джош Лукас, Джессика Бил, Джейми Фокс, Сэм Шепард, Джо Мортон, Эбон Мосс-Бакрак, Ричард Роксбург

О фильме:
На военно-морскую авиабазу доставлен искусственный интеллект, который должен обучиться у настоящего пилота управлению боевым самолетом. По мере роста боевой и политической подготовленности, ИскИн приобретает также некоторые идеи, определенно вредные для мира во всем мире.



Страна: США
Студия: Columbia Pictures Corporation, Phoenix Pictures, Original Film
Продолжительность: 02:00:44
Перевод: Профессиональный дублированный

Файл
Качество: BDRip-HEVC 1080p
Формат: MKV
Видео: HEVC, 1920x800, 8344 Кбит/сек, 23.976 кадр/сек, 10 бит
Звук:
Аудио1: Русская, AC3 640 Кбит/сек, 6 канала(ов),16bit 48,0 КГц Дублированный
Аудио7: English, AC3 640 Кбит/сек, 6 канала(ов),16bit 48,0 КГц Original
Субтитры: Русские, English
Навигация по главам: Есть

Mediainfo
x265 [info]: frame I: 1745, Avg QP:17.62 kb/s: 18597.97
x265 [info]: frame P: 41436, Avg QP:19.24 kb/s: 13733.77
x265 [info]: frame B: 130507, Avg QP:21.75 kb/s: 6494.39
x265 [info]: consecutive B-frames: 15.5% 8.8% 9.4% 28.9% 11.1% 20.0% 3.7% 1.4% 0.7% 0.2% 0.2% 0.2%

General
Unique ID : 122173470750606347161234738213569911535 (0x5BE9C12BAF5FF7D3D5B553C0B1CF5AEF)
Complete name : H:HEVC4Стелс - Stealth (2005) BDRip-HEVC 1080p - KORSAR.mkv
Format : Matroska
Format version : Version 4 / Version 2
File size : 8.12 GiB
Duration : 2 h 0 min
Overall bit rate : 9 626 kb/s
Encoded date : UTC 2019-12-13 16:52:51
Writing application : mkvmerge v37.0.0 ('Leave It') 64-bit
Writing library : libebml v1.3.9 + libmatroska v1.5.2
Cover : Yes
Attachments : cover23.jpg

Video
ID : 1
Format : HEVC
Format/Info : High Efficiency Video Coding
Format profile : Main [email protected]@High
Codec ID : V_MPEGH/ISO/HEVC
Duration : 2 h 0 min
Bit rate : 8 344 kb/s
Width : 1 920 pixels
Height : 800 pixels
Display aspect ratio : 2.40:1
Frame rate mode : Constant
Frame rate : 23.976 (24000/1001) FPS
Color space : YUV
Chroma subsampling : 4:2:0
Bit depth : 10 bits
Bits/(Pixel*Frame) : 0.227
Stream size : 7.04 GiB (87%)
Writing library : x265 3.2+5-a3a088a7262f:[Windows][GCC 9.2.0][64 bit] 10bit
Encoding settings : cpuid=1111039 / frame-threads=4 / numa-pools=16 / wpp / no-pmode / no-pme / no-psnr / no-ssim / log-level=2 / input-csp=1 / input-res=1920x800 / interlace=0 / total-frames=173688 / level-idc=41 / high-tier=1 / uhd-bd=0 / ref=5 / no-allow-non-conformance / no-repeat-headers / annexb / no-aud / no-hrd / info / hash=0 / no-temporal-layers / open-gop / min-keyint=23 / keyint=240 / gop-lookahead=0 / bframes=11 / b-adapt=2 / b-pyramid / bframe-bias=0 / rc-lookahead=60 / lookahead-slices=1 / scenecut=40 / radl=0 / no-splice / no-intra-refresh / ctu=32 / min-cu-size=8 / rect / amp / max-tu-size=32 / tu-inter-depth=4 / tu-intra-depth=4 / limit-tu=1 / rdoq-level=2 / dynamic-rd=0.00 / no-ssim-rd / signhide / no-tskip / nr-intra=0 / nr-inter=0 / no-constrained-intra / no-strong-intra-smoothing / max-merge=5 / limit-refs=3 / limit-modes / me=3 / subme=7 / merange=57 / temporal-mvp / no-hme / weightp / weightb / no-analyze-src-pics / deblock=-3:-2 / no-sao / no-sao-non-deblock / rd=6 / selective-sao=0 / no-early-skip / no-rskip / no-fast-intra / no-tskip-fast / no-cu-lossless / no-b-intra / no-splitrd-skip / rdpenalty=0 / psy-rd=2.00 / psy-rdoq=1.05 / no-rd-refine / no-lossless / cbqpoffs=0 / crqpoffs=0 / rc=crf / crf=19.5 / qcomp=0.75 / qpstep=4 / stats-write=0 / stats-read=0 / vbv-maxrate=50000 / vbv-bufsize=50000 / vbv-init=0.9 / crf-max=0.0 / crf-min=0.0 / ipratio=1.40 / pbratio=1.30 / aq-mode=4 / aq-strength=0.70 / no-cutree / zone-count=1 / zones: / start-frame=164226 / end-frame=172837 / qp=36 / no-strict-cbr / qg-size=32 / no-rc-grain / qpmax=69 / qpmin=0 / no-const-vbv / sar=1 / overscan=0 / videoformat=5 / range=0 / colorprim=1 / transfer=1 / colormatrix=1 / chromaloc=0 / display-window=0 / cll=0,0 / min-luma=0 / max-luma=1023 / log2-max-poc-lsb=8 / vui-timing-info / vui-hrd-info / slices=1 / no-opt-qp-pps / no-opt-ref-list-length-pps / no-multi-pass-opt-rps / scenecut-bias=0.05 / no-opt-cu-delta-qp / no-aq-motion / no-hdr / no-hdr-opt / no-dhdr10-opt / no-idr-recovery-sei / analysis-reuse-level=5 / scale-factor=0 / refine-intra=0 / refine-inter=0 / refine-mv=1 / refine-ctu-distortion=0 / no-limit-sao / ctu-info=0 / no-lowpass-dct / refine-analysis-type=0 / copy-pic=1 / max-ausize-factor=1.0 / no-dynamic-refine / no-single-sei / no-hevc-aq / no-svt / no-field / qp-adaptation-range=1.00
Language : English
Default : Yes
Forced : No
Color range : Limited
Color primaries : BT.709
Transfer characteristics : BT.709
Matrix coefficients : BT.709

Audio #1
ID : 2
Format : AC-3
Format/Info : Audio Coding 3
Commercial name : Dolby Digital
Codec ID : A_AC3
Duration : 2 h 0 min
Bit rate mode : Constant
Bit rate : 640 kb/s
Channel(s) : 6 channels
Channel layout : L R C LFE Ls Rs
Sampling rate : 48.0 kHz
Frame rate : 31.250 FPS (1536 SPF)
Bit depth : 16 bits
Compression mode : Lossy
Stream size : 553 MiB (7%)
Language : Russian
Service kind : Complete Main
Default : Yes
Forced : No

Audio #2
ID : 3
Format : AC-3
Format/Info : Audio Coding 3
Commercial name : Dolby Digital
Codec ID : A_AC3
Duration : 2 h 0 min
Bit rate mode : Constant
Bit rate : 640 kb/s
Channel(s) : 6 channels
Channel layout : L R C LFE Ls Rs
Sampling rate : 48.0 kHz
Frame rate : 31.250 FPS (1536 SPF)
Bit depth : 16 bits
Compression mode : Lossy
Stream size : 553 MiB (7%)
Language : English
Service kind : Complete Main
Default : No
Forced : No

Text #1
ID : 4
Format : UTF-8
Codec ID : S_TEXT/UTF8
Codec ID/Info : UTF-8 Plain Text
Duration : 1 h 52 min
Bit rate : 73 b/s
Count of elements : 1119
Stream size : 60.6 KiB (0%)
Language : Russian
Default : No
Forced : No

Text #2
ID : 5
Format : UTF-8
Codec ID : S_TEXT/UTF8
Codec ID/Info : UTF-8 Plain Text
Duration : 1 h 51 min
Bit rate : 52 b/s
Count of elements : 1116
Stream size : 42.6 KiB (0%)
Language : English
Default : No
Forced : No

Menu
00:00:00.000 : en:00:00:00.000
00:06:35.604 : en:00:06:35.604
00:14:34.999 : en:00:14:34.999
00:21:53.062 : en:00:21:53.062
00:30:37.669 : en:00:30:37.669
00:38:06.284 : en:00:38:06.284
00:45:03.409 : en:00:45:03.409
00:53:54.440 : en:00:53:54.440
01:01:08.415 : en:01:01:08.415
01:09:03.806 : en:01:09:03.806
01:15:59.388 : en:01:15:59.388
01:23:11.695 : en:01:23:11.695
01:29:59.769 : en:01:29:59.769
01:36:48.803 : en:01:36:48.803
01:42:37.485 : en:01:42:37.485
01:48:01.433 : en:01:48:01.433
Скриншоты


Релиз от: Cthulhu
 

Вложения

  • 41,7 KB Просмотры: 0
    Личеров 0
    Сидеров 0
    Файлов 1
    Объем 8,1 GB

Привет!

Мы группа людей которые решили помочь другим в решении их проблем, а так же пользователям с поиском самых свежих и качественных инфопродуктов. За 4 с небольшим месяца мы создали этот форум на который заходят ежедневно тысячи человек и посещаемость постоянно растёт. Мы создали панель лицензирования для защиты PHP скриптов от воровства и SEO панель для мониторинга наших сайтов и выбора верной стратегии их развития. Мы надеемся что то что мы создали пригодится Вам и возможно Вы поможете нам развиваться и совершенствоваться вместе с Вами.

Статистика форума

Темы
406.658
Сообщения
465.103
Пользователи
84.688
Новый пользователь
Knight59136

Приложения форума для iOS и Android


У ркн там нет власти ;)
Приватные разговоры
Помощь Пользователи
    Вы не присоединились ни к одной комнате.