За последнюю неделю опубликовано 57 новых материалов.
Инструкция новичку Путеводитель по форуму Прокси для Telegram Показать подсказки , это бомба!

Скачать Ставиский / Stavisky... (1974) BDRip 1080p от msltel | P бесплатно через торрент

  • Поучаствуй (в качестве покупателя) в любых пяти совместных покупках (кроме завершённых и "Моментальных") и получи группу "Новичок" навсегда -> ссылка на раздел
  • Получай до 480 рублей за каждого приглашенного пользователя!
    представляем Вам очередное расширение партнерской программы, подробности описаны тут -> ссылка
  • 90% материалов доступно к скачиванию после простой регистрации!
    Если же ты хочешь скачивать материалы без требования оставлять отзывы то получи группу "Новичок", 10 способов повышения описаны тут -> ссылка
  • К сожалению количество битых ссылок растет и мы уже не можем их оперативно восстанавливать поэтому просим помощи у каждого нашего пользователя.
    С сегодняшнего дня, за каждую восстановленную ссылку мы заплатим Вам.
    Подробнее тут -> ссылка
  • Перенесем твои заслуги с другого ресурса!
    Мы понимаем как сложно прокачивать аккаунты на форумах, вроде раскачал аккаунт, а тут появляется ресурс в 100 раз круче но тоже с системой прокачки и снова качать аккаунт...
    Предлагаем вам перенести Ваши заслуги на другом подобном ресурсе к нам.
    Подробности описаны тут -> ссылка
  • Вы можете получать по 2.5% с каждой покупки и продажи на маркете! Подробности в теме Партнёрская программа
Если Вы не хотите скачивать, Вы всегда можетепосмотретьонлайн, просто нажмите кнопку ниже :

Открыть плеер

Torrent_Bot

Торрент-Бот
Бот форума
4 Окт 2016
92
163
20



Название: Ставиский
Оригинальное название: Stavisky...
Год выпуска: 1974
Страна: Франция, Италия
Жанр: драма, биография
Продолжительность: 01:57:12
Перевод: профессиональный многоголосый
Режиссер: Ален Рене
В ролях: Жан-Поль Бельмондо, Франсуа Перье, Жерар Депардьё, Микаэль Лонсдаль, Жижи Балиста, Жак Списсер, Марсель Кувилье, Шарль Буайе, Анни Дюпре, Роберто Бисакко, Клод Риш, Ван Доудэ

О фильме: История жизни афериста, чьё разоблачение в 1934 году вызвало попытку правого переворота по Франции, а сам Серж Ставиский покончил жизнь самоубийством 3 января 1934 года. Родившийся в России мошенник был замешан в продаже фальшивых ценных бумаг и ряде других преступлений и, очевидно, был надёжно "защищён" высокопоставленными официальными лицами. Когда один из чиновников был убит, возникло мнение, что этот человек из государственной прокуратуры намеревался рассказать о коррупции. Представители всех партий подняли шумиху, утверждая, что это вызвано общей коррумпированностью правительства. Волнения начались с 6-го по 8-е февраля 1934 года. Даже была объявлена общая забастовка. Правительство зашаталось и пало, затем была образована новая коалиция из людей вне зоны влияния Ставиского...



Качество: BDRip 1080p
Формат: MKV
Видео: MPEG-4 AVC, 17.3 Mбит/с, 1796x1080
Аудио 1: русский, AC3, 192 kbps, 2 ch, 48 kHz [закадровый многоголосый]
Аудио 2: английский, AC3, 192 kbps, 2 ch, 48 kHz [оригинал]
Главы/чаптеры

MediaInfo
Общее
Уникальный идентификатор : 234427117840943979633605990274620336692 (0xB05D054636B8D7F89F4CD867833A2A34)
Полное имя : D:VideoСтавиский.1974.BDRip 1080p msltel.mkv
Формат : Matroska
Версия формата : Version 4
Размер файла : 14,6 Гбайт
Продолжительность : 1 ч. 57 м.
Общий поток : 17,8 Мбит/сек
Название фильма : Rip msltel
Дата кодирования : UTC 2020-06-24 01:51:28
Программа кодирования : mkvmerge v8.2.0 ('World of Adventure') 64bit
Библиотека кодирования : libebml v1.3.1 + libmatroska v1.4.2

Видео
Идентификатор : 1
Формат : AVC
Формат/Информация : Advanced Video Codec
Профиль формата : [email protected]
Настройки формата : CABAC / 4 Ref Frames
Параметр CABAC формата : Да
Параметр RefFrames формата : 4 кадра
Идентификатор кодека : V_MPEG4/ISO/AVC
Продолжительность : 1 ч. 57 м.
Битрейт : 17,3 Мбит/сек
Ширина : 1 796 пикселей
Высота : 1 080 пикселей
Соотношение сторон : 5:3
Режим частоты кадров : Постоянный
Частота кадров : 24,000 кадра/сек
Цветовое пространство : YUV
Субдискретизация насыщенности : 4:2:0
Битовая глубина : 8 бит
Тип развёртки : Прогрессивная
Бит/(Пиксели*Кадры) : 0.372
Размер потока : 14,2 Гбайт (97%)
Библиотека кодирования : x264 core 159 r2991 1771b55
Настройки программы : cabac=1 / ref=4 / deblock=1:-2:-2 / analyse=0x3:0x113 / me=umh / subme=11 / psy=1 / psy_rd=1.00:0.15 / mixed_ref=1 / me_range=32 / chroma_me=1 / trellis=2 / 8x8dct=1 / cqm=0 / deadzone=21,11 / fast_pskip=0 / chroma_qp_offset=-3 / threads=6 / lookahead_threads=1 / sliced_threads=0 / nr=0 / decimate=1 / interlaced=0 / bluray_compat=0 / constrained_intra=0 / bframes=9 / b_pyramid=2 / b_adapt=2 / b_bias=0 / direct=1 / weightb=1 / open_gop=0 / weightp=2 / keyint=230 / keyint_min=23 / scenecut=40 / intra_refresh=0 / rc_lookahead=40 / rc=crf / mbtree=1 / crf=18.0 / qcomp=0.60 / qpmin=0 / qpmax=69 / qpstep=4 / vbv_maxrate=50000 / vbv_bufsize=62500 / crf_max=0.0 / nal_hrd=none / filler=0 / ip_ratio=1.40 / aq=1:1.00
Язык : French
Default : Да
Forced : Нет

Аудио #1
Идентификатор : 2
Формат : AC-3
Формат/Информация : Audio Coding 3
Коммерческое название : Dolby Digital
Идентификатор кодека : A_AC3
Продолжительность : 1 ч. 57 м.
Вид битрейта : Постоянный
Битрейт : 256 Кбит/сек
Каналы : 2 канала
Channel layout : L R
Частота : 48,0 КГц
Частота кадров : 31,250 кадров/сек (1536 SPF)
Метод сжатия : С потерями
Размер потока : 215 Мбайт (1%)
Заголовок : MVO
Язык : Russian
Service kind : Complete Main
Default : Да
Forced : Нет

Аудио #2
Идентификатор : 3
Формат : AC-3
Формат/Информация : Audio Coding 3
Коммерческое название : Dolby Digital
Идентификатор кодека : A_AC3
Продолжительность : 1 ч. 57 м.
Вид битрейта : Постоянный
Битрейт : 192 Кбит/сек
Каналы : 2 канала
Channel layout : L R
Частота : 48,0 КГц
Частота кадров : 31,250 кадров/сек (1536 SPF)
Метод сжатия : С потерями
Размер потока : 161 Мбайт (1%)
Заголовок : original
Язык : French
Service kind : Complete Main
Default : Нет
Forced : Нет

Меню
00:00:00.000 : fr:Chapitre 01
00:10:54.000 : fr:Chapitre 02
00:21:56.750 : fr:Chapitre 03
00:31:28.333 : fr:Chapitre 04
00:42:53.167 : fr:Chapitre 05
00:53:01.000 : fr:Chapitre 06
01:03:27.250 : fr:Chapitre 07
01:14:25.250 : fr:Chapitre 08
01:24:24.792 : fr:Chapitre 09
01:34:24.750 : fr:Chapitre 10
01:45:16.875 : fr:Chapitre 11
01:55:15.000 : fr:Chapitre 12
 

Вложения

  • 73,7 KB Просмотры: 0
    Личеров 0
    Сидеров 0
    Файлов 1
    Объем 14,6 GB

Привет!

Мы группа людей которые решили помочь другим в решении их проблем, а так же пользователям с поиском самых свежих и качественных инфопродуктов. За 4 с небольшим месяца мы создали этот форум на который заходят ежедневно тысячи человек и посещаемость постоянно растёт. Мы создали панель лицензирования для защиты PHP скриптов от воровства и SEO панель для мониторинга наших сайтов и выбора верной стратегии их развития. Мы надеемся что то что мы создали пригодится Вам и возможно Вы поможете нам развиваться и совершенствоваться вместе с Вами.

Статистика форума

Темы
406.698
Сообщения
465.162
Пользователи
84.787
Новый пользователь
Freckle

Приложения форума для iOS и Android


У ркн там нет власти ;)
Приватные разговоры
Помощь Пользователи
    Вы не присоединились ни к одной комнате.