За последнюю неделю опубликовано 63 новых материалов.
Инструкция новичку Путеводитель по форуму Прокси для Telegram Показать подсказки , это бомба!

Скачать Статус: Свободен (2015) WEB-DL 720p | iTunes бесплатно через торрент

  • Поучаствуй (в качестве покупателя) в любых пяти совместных покупках (кроме завершённых и "Моментальных") и получи группу "Новичок" навсегда -> ссылка на раздел
  • Получай до 480 рублей за каждого приглашенного пользователя!
    представляем Вам очередное расширение партнерской программы, подробности описаны тут -> ссылка
  • 90% материалов доступно к скачиванию после простой регистрации!
    Если же ты хочешь скачивать материалы без требования оставлять отзывы то получи группу "Новичок", 10 способов повышения описаны тут -> ссылка
  • К сожалению количество битых ссылок растет и мы уже не можем их оперативно восстанавливать поэтому просим помощи у каждого нашего пользователя.
    С сегодняшнего дня, за каждую восстановленную ссылку мы заплатим Вам.
    Подробнее тут -> ссылка
  • Перенесем твои заслуги с другого ресурса!
    Мы понимаем как сложно прокачивать аккаунты на форумах, вроде раскачал аккаунт, а тут появляется ресурс в 100 раз круче но тоже с системой прокачки и снова качать аккаунт...
    Предлагаем вам перенести Ваши заслуги на другом подобном ресурсе к нам.
    Подробности описаны тут -> ссылка
  • Вы можете получать по 2.5% с каждой покупки и продажи на маркете! Подробности в теме Партнёрская программа
Если Вы не хотите скачивать, Вы всегда можетепосмотретьонлайн, просто нажмите кнопку ниже :

Открыть плеер

Torrent_Bot

Торрент-Бот
Бот форума
4 Окт 2016
82
186
20


Информация о фильме
Название: Статус: Свободен
Оригинальное название: Статус: Свободен
Год выхода: 2015
Жанр: комедия, мелодрама
Режиссер: Павел Руминов
В ролях: Данила Козловский, Елизавета Боярская, Владимир Селезнев, Игорь Войнаровский, Наталья Анисимова, Паулина Андреева, Надежда Звенигородская, Милош Руминов, Михаил Крылов, Катрин Асси


О фильме: Никита и Афина — идеальная пара… Как палочки Твикс. Как Бред Питт и Анджелина Джоли. Но… только по мнению Никиты. Внезапно Афина сообщает, что уходит от него. Причем — к 40-летнему стоматологу. Никита не согласен с таким поворотом судьбы и обещает Афине, что вернет ее за неделю. Что готов сделать отчаянный стэндапер, чтобы вернуть свою любовь?





Выпущено: Россия
Продолжительность: 01:38:48
Озвучивание: Оригинал [iTunes]


Файл
Формат: MKV
Качество: WEB-DL 720p
Видео: MPEG-4 AVC, 3993 kb/s, 1280x536
Аудио: AC3, 384 kb/s (6 ch)


MI
Format : Matroska
Format version : Version 4 / Version 2
File size : 3.08 GiB
Duration : 1h 38mn
Overall bit rate : 4 466 Kbps
Encoded date : UTC 2016-02-18 19:26:56
Writing application : mkvmerge v8.3.0 ('Over the Horizon') 64bit
Writing library : libebml v1.3.1 + libmatroska v1.4.2
DURATION : 01:38:48.160000000
NUMBER_OF_FRAMES : 185255
NUMBER_OF_BYTES : 284551680
_STATISTICS_WRITING_APP : mkvmerge v8.3.0 ('Over the Horizon') 64bit
_STATISTICS_WRITING_DATE_UTC : 2016-02-18 19:26:56
_STATISTICS_TAGS : BPS DURATION NUMBER_OF_FRAMES NUMBER_OF_BYTES

Video
ID : 1
Format : AVC
Format/Info : Advanced Video Codec
Format profile : [email protected]
Format settings, CABAC : No
Format settings, ReFrames : 2 frames
Codec ID : V_MPEG4/ISO/AVC
Duration : 1h 38mn
Bit rate : 3 993 Kbps
Width : 1 280 pixels
Height : 536 pixels
Display aspect ratio : 2.40:1
Frame rate mode : Constant
Frame rate : 24.000 fps
Color space : YUV
Chroma subsampling : 4:2:0
Bit depth : 8 bits
Scan type : Progressive
Bits/(Pixel*Frame) : 0.243
Stream size : 2.76 GiB (89%)
Language : English
Default : Yes
Forced : No
Color range : Limited
Color primaries : BT.709
Transfer characteristics : BT.709
Matrix coefficients : BT.709

Audio
ID : 2
Format : AC-3
Format/Info : Audio Coding 3
Mode extension : CM (complete main)
Format settings, Endianness : Big
Codec ID : A_AC3
Duration : 1h 38mn
Bit rate mode : Constant
Bit rate : 384 Kbps
Channel(s) : 6 channels
Channel positions : Front: L C R, Side: L R, LFE
Sampling rate : 48.0 KHz
Bit depth : 16 bits
Compression mode : Lossy
Stream size : 271 MiB (9%)
Language : Russian
Default : Yes
Forced : No

Menu
00:00:00.000 : en:Глава 1
00:07:17.458 : en:Глава 2
00:12:47.666 : en:Глава 3
00:19:18.749 : en:Глава 4
00:25:54.999 : en:Глава 5
00:30:58.832 : en:Глава 6
00:37:33.373 : en:Глава 7
00:42:50.914 : en:Глава 8
00:48:59.664 : en:Глава 9
00:54:10.747 : en:Глава 10
01:00:01.663 : en:Глава 11
01:05:25.413 : en:Глава 12
01:10:46.371 : en:Глава 13
01:16:50.912 : en:Глава 14
01:23:10.828 : en:Глава 15
01:28:25.911 : en:Глава 16
Скриншоты





 

Вложения

  • 31,7 KB Просмотры: 0
    Личеров 0
    Сидеров 0
    Файлов 1
    Объем 3,1 GB

Привет!

Мы группа людей которые решили помочь другим в решении их проблем, а так же пользователям с поиском самых свежих и качественных инфопродуктов. За 4 с небольшим месяца мы создали этот форум на который заходят ежедневно тысячи человек и посещаемость постоянно растёт. Мы создали панель лицензирования для защиты PHP скриптов от воровства и SEO панель для мониторинга наших сайтов и выбора верной стратегии их развития. Мы надеемся что то что мы создали пригодится Вам и возможно Вы поможете нам развиваться и совершенствоваться вместе с Вами.

Статистика форума

Темы
412.099
Сообщения
471.069
Пользователи
91.344
Новый пользователь
ЕкатеринаЛи

Приложения форума для iOS и Android


У ркн там нет власти ;)
Приватные разговоры
Помощь Пользователи
    Вы не присоединились ни к одной комнате.