За последнюю неделю опубликовано 88 новых материалов.
Инструкция новичку Путеводитель по форуму Прокси для Telegram Показать подсказки , это бомба!

Скачать Срочно выйду замуж (2015) WEB-DL 720p | iTunes бесплатно через торрент

  • Поучаствуй (в качестве покупателя) в любых пяти совместных покупках (кроме завершённых и "Моментальных") и получи группу "Новичок" навсегда -> ссылка на раздел
  • Получай до 480 рублей за каждого приглашенного пользователя!
    представляем Вам очередное расширение партнерской программы, подробности описаны тут -> ссылка
  • 90% материалов доступно к скачиванию после простой регистрации!
    Если же ты хочешь скачивать материалы без требования оставлять отзывы то получи группу "Новичок", 10 способов повышения описаны тут -> ссылка
  • К сожалению количество битых ссылок растет и мы уже не можем их оперативно восстанавливать поэтому просим помощи у каждого нашего пользователя.
    С сегодняшнего дня, за каждую восстановленную ссылку мы заплатим Вам.
    Подробнее тут -> ссылка
  • Перенесем твои заслуги с другого ресурса!
    Мы понимаем как сложно прокачивать аккаунты на форумах, вроде раскачал аккаунт, а тут появляется ресурс в 100 раз круче но тоже с системой прокачки и снова качать аккаунт...
    Предлагаем вам перенести Ваши заслуги на другом подобном ресурсе к нам.
    Подробности описаны тут -> ссылка
  • Вы можете получать по 2.5% с каждой покупки и продажи на маркете! Подробности в теме Партнёрская программа
Если Вы не хотите скачивать, Вы всегда можетепосмотретьонлайн, просто нажмите кнопку ниже :

Открыть плеер

Torrent_Bot

Торрент-Бот
Бот форума
4 Окт 2016
102
153
20

Информация о фильме
Название: Срочно выйду замуж
Оригинальное название: Срочно выйду замуж
Год выхода: 2015
Жанр: комедия, мелодрама
Режиссер: Сергей Чекалов
В ролях: Юлия Ковальчук, Алексей Чумаков, Екатерина Маликова, Сергей Бурунов, Ольга Прокофьева, Вячеслав Гришечкин, Нонна Гришаева, Анатолий Белый, Алика Смехова, Эвклид Кюрдзидис


О фильме: Женя — редактор-трудоголик, Стас — светский фотограф. Она амбициозна, а у него по жизни — ни задачи, ни проблемы. Женя хочет и может стать главным редактором журнала, но для этого у нее срочно должен появиться супруг! Условие акционеров издания — семейная аудитория нуждается в семейном руководителе. И на решение этой задачи у девушки есть всего неделя. Стас берется помочь девушке, в картотеке у модного фотографа есть немало холостяков, которые вполне могли бы подойти на роль мужа. Но неожиданно Женя понимает, что совсем не расчетлива, а Стас с удивлением обнаруживает, что влюблен.





Выпущено: Россия
Продолжительность: 01:43:33
Озвучивание: Оригинал [iTunes]


Файл
Формат: MKV
Качество: WEB-DL 720p
Видео: MPEG-4 AVC, 3893 kb/s, 1280@960x536
Аудио: AC3, 384 kb/s (6 ch)


MI
Format : Matroska
Format version : Version 4 / Version 2
File size : 3.16 GiB
Duration : 1h 43mn
Overall bit rate : 4 363 Kbps
Encoded date : UTC 2016-01-30 19:11:00
Writing application : mkvmerge v8.3.0 ('Over the Horizon') 64bit
Writing library : libebml v1.3.1 + libmatroska v1.4.2

Video
ID : 1
Format : AVC
Format/Info : Advanced Video Codec
Format profile : Main@L3.1
Format settings, CABAC : No
Format settings, ReFrames : 2 frames
Codec ID : V_MPEG4/ISO/AVC
Duration : 1h 43mn
Bit rate : 3 893 Kbps
Width : 960 pixels
Height : 536 pixels
Display aspect ratio : 2.40:1
Frame rate mode : Constant
Frame rate : 25.000 fps
Color space : YUV
Chroma subsampling : 4:2:0
Bit depth : 8 bits
Scan type : Progressive
Bits/(Pixel*Frame) : 0.303
Stream size : 2.82 GiB (89%)
Language : English
Default : Yes
Forced : No
Color range : Limited
Color primaries : BT.709
Transfer characteristics : BT.709
Matrix coefficients : BT.709

Audio
ID : 2
Format : AC-3
Format/Info : Audio Coding 3
Mode extension : CM (complete main)
Format settings, Endianness : Big
Codec ID : A_AC3
Duration : 1h 43mn
Bit rate mode : Constant
Bit rate : 384 Kbps
Channel(s) : 6 channels
Channel positions : Front: L C R, Side: L R, LFE
Sampling rate : 48.0 KHz
Bit depth : 16 bits
Compression mode : Lossy
Stream size : 284 MiB (9%)
Language : Russian
Default : Yes
Forced : No

Menu
00:00:00.000 : en:1
00:09:00.000 : en:2
00:18:28.000 : en:3
00:28:34.000 : en:4
00:37:27.000 : en:5
00:46:09.000 : en:6
00:56:35.000 : en:7
01:05:17.000 : en:8
01:13:46.000 : en:9
01:21:27.000 : en:10
01:29:53.000 : en:11
01:38:22.000 : en:12
Скриншоты








 

Вложения

  • 32,4 KB Просмотры: 0
    Личеров 0
    Сидеров 0
    Файлов 1
    Объем 3,2 GB

Привет!

Мы группа людей которые решили помочь другим в решении их проблем, а так же пользователям с поиском самых свежих и качественных инфопродуктов. За 4 с небольшим месяца мы создали этот форум на который заходят ежедневно тысячи человек и посещаемость постоянно растёт. Мы создали панель лицензирования для защиты PHP скриптов от воровства и SEO панель для мониторинга наших сайтов и выбора верной стратегии их развития. Мы надеемся что то что мы создали пригодится Вам и возможно Вы поможете нам развиваться и совершенствоваться вместе с Вами.

Статистика форума

Темы
404.615
Сообщения
461.552
Пользователи
80.401
Новый пользователь
vakerhiz

Приложения форума для iOS и Android


У ркн там нет власти ;)
Приватные разговоры
Помощь Пользователи
    Вы не присоединились ни к одной комнате.