За последнюю неделю опубликовано 65 новых материалов.
Инструкция новичку Путеводитель по форуму Прокси для Telegram Показать подсказки , это бомба!

Скачать Спутник (2020) WEB-DLRip-AVC от MediaBit | iTunes бесплатно через торрент

  • Поучаствуй (в качестве покупателя) в любых пяти совместных покупках (кроме завершённых и "Моментальных") и получи группу "Новичок" навсегда -> ссылка на раздел
  • Получай до 480 рублей за каждого приглашенного пользователя!
    представляем Вам очередное расширение партнерской программы, подробности описаны тут -> ссылка
  • 90% материалов доступно к скачиванию после простой регистрации!
    Если же ты хочешь скачивать материалы без требования оставлять отзывы то получи группу "Новичок", 10 способов повышения описаны тут -> ссылка
  • К сожалению количество битых ссылок растет и мы уже не можем их оперативно восстанавливать поэтому просим помощи у каждого нашего пользователя.
    С сегодняшнего дня, за каждую восстановленную ссылку мы заплатим Вам.
    Подробнее тут -> ссылка
  • Перенесем твои заслуги с другого ресурса!
    Мы понимаем как сложно прокачивать аккаунты на форумах, вроде раскачал аккаунт, а тут появляется ресурс в 100 раз круче но тоже с системой прокачки и снова качать аккаунт...
    Предлагаем вам перенести Ваши заслуги на другом подобном ресурсе к нам.
    Подробности описаны тут -> ссылка
  • Вы можете получать по 2.5% с каждой покупки и продажи на маркете! Подробности в теме Партнёрская программа
Если Вы не хотите скачивать, Вы всегда можетепосмотретьонлайн, просто нажмите кнопку ниже :

Открыть плеер

Torrent_Bot

Торрент-Бот
Бот форума
4 Окт 2016
92
163
20





Спутник




Информация о фильме:

Название: Спутник
Год выхода: 2020
Жанр: Фантастика, триллер, драма
Режиссер: Егор Абраменко

В ролях: Оксана Акиньшина, Пётр Фёдоров, Фёдор Бондарчук, Антон Васильев, Виталия Корниенко, Наталья Швец, Алексей Демидов, Александр Марушев, Альбрехт Зандер, Александр Шам, Павел Устинов, Анна Назарова

Описание: СССР, 1983 год. На землю возвращается космический аппарат, но от людей скрывают, что из двух космонавтов живым возвращается только один. Что произошло на борту, остается загадкой, но факты указывают на то, что космонавты столкнулись с новой формой жизни и выживший вернулся не совсем один. На засекреченную военную базу, где космонавт Константин Вешняков содержится под строгим контролем и наблюдением, привозят нейрофизиолога Татьяну Климову, которая пытается докопаться до правды и спасти героя, ставшего для нее небезразличным.



Страна: Россия
Студия: Art Pictures Studio, «Водород», Hype Film
Продолжительность: 01:53:42
Перевод: Не требуется - iTunes



Информация о файле:
Кодек: AVC
Формат: MKV
Качество: WEB-DLRip-AVC
Видео: MPEG-4 AVC, 744x312 (2,40:1), 828 Кбит/сек, 24,000 кадра/сек, 0.149
Аудио RU: AAC-HE, 2 ch, 48 kHz, 96 kbps
Субтитры: Нет
Чаптеры: Да

|

Трейлер

Скриншоты
MediaInfo
Общее
Уникальный идентификатор : 103622779776078989495506293599359534979 (0x4DF5057DB0D881A700BBA4B9665D0783)
Полное имя : D:uTorrentРипы_от_wolf1245_MediaBitSPUTNIK_2020_WEB-DLRip-AVC_wolf1245_MediaBit.mkv
Формат : Matroska
Версия формата : Version 4
Размер файла : 753 Мбайт
Продолжительность : 1 ч. 53 м.
Общий поток : 926 Кбит/сек
Название фильма : SPUTNIK_2020_WEB-DLRip-AVC_wolf1245_MediaBit
Дата кодирования : UTC 2020-08-17 18:02:56
Программа кодирования : mkvmerge v49.0.0 ('Sick Of Losing Soulmates') 64-bit
Библиотека кодирования : libebml v1.4.0 + libmatroska v1.6.1
Обложка : Yes
Attachments : Cover.png

Видео
Идентификатор : 1
Формат : AVC
Формат/Информация : Advanced Video Codec
Профиль формата : [email protected]
Настройки формата : CABAC / 12 Ref Frames
Параметр CABAC формата : Да
Параметр RefFrames формата : 12 кадров
Идентификатор кодека : V_MPEG4/ISO/AVC
Продолжительность : 1 ч. 53 м.
Битрейт : 828 Кбит/сек
Ширина : 744 пикселя
Высота : 312 пикселей
Соотношение сторон : 2,40:1
Режим частоты кадров : Постоянный
Частота кадров : 24,000 кадра/сек
Цветовое пространство : YUV
Субдискретизация насыщенности : 4:2:0
Битовая глубина : 8 бит
Тип развёртки : Прогрессивная
Бит/(Пиксели*Кадры) : 0.149
Размер потока : 673 Мбайт (89%)
Заголовок : wolf1245_MediaBit
Библиотека кодирования : x264 core 157 r2958 57baac4
Настройки программы : cabac=1 / ref=12 / deblock=1:-3:-3 / analyse=0x3:0x133 / me=umh / subme=11 / psy=1 / psy_rd=1.00:0.15 / mixed_ref=1 / me_range=48 / chroma_me=1 / trellis=2 / 8x8dct=1 / cqm=0 / deadzone=21,11 / fast_pskip=0 / chroma_qp_offset=-3 / threads=10 / lookahead_threads=2 / sliced_threads=0 / nr=0 / decimate=0 / interlaced=0 / bluray_compat=0 / constrained_intra=0 / bframes=12 / b_pyramid=2 / b_adapt=2 / b_bias=12 / direct=3 / weightb=1 / open_gop=0 / weightp=2 / keyint=240 / keyint_min=24 / scenecut=40 / intra_refresh=0 / rc_lookahead=60 / rc=2pass / mbtree=0 / bitrate=828 / ratetol=1.0 / qcomp=0.60 / qpmin=0 / qpmax=69 / qpstep=4 / cplxblur=20.0 / qblur=0.5 / vbv_maxrate=50000 / vbv_bufsize=62500 / nal_hrd=none / filler=0 / ip_ratio=1.40 / pb_ratio=1.30 / aq=1:1.00
Язык : English
Default : Да
Forced : Нет
Цветовой диапазон : Limited
Основные цвета : BT.709
Характеристики трансфера : BT.709
Коэффициенты матрицы : BT.709

Аудио
Идентификатор : 2
Формат : AAC LC SBR
Формат/Информация : Advanced Audio Codec Low Complexity with Spectral Band Replication
Коммерческое название : HE-AAC
Настройки формата : Implicit
Идентификатор кодека : A_AAC-2
Продолжительность : 1 ч. 53 м.
Битрейт : 96,0 Кбит/сек
Каналы : 2 канала
Channel layout : L R
Частота : 48,0 КГц
Частота кадров : 23,438 кадра/сек (2048 SPF)
Метод сжатия : С потерями
Размер потока : 78,1 Мбайт (10%)
Заголовок : iTunes
Язык : Russian
Default : Да
Forced : Нет

Меню
00:00:00.000 : :Глава 1
00:07:56.000 : :Глава 2
00:16:07.125 : :Глава 3
00:25:32.208 : :Глава 4
00:34:06.291 : :Глава 5
00:43:06.332 : :Глава 6
00:51:42.040 : :Глава 7
01:00:47.498 : :Глава 8
01:08:56.997 : :Глава 9
01:17:25.581 : :Глава 10
01:27:14.206 : :Глава 11
01:35:43.581 : :Глава 12

Рип от: &
 

Вложения

  • 16,5 KB Просмотры: 0
    Личеров 0
    Сидеров 0
    Файлов 1
    Объем 753,3 MB

Привет!

Мы группа людей которые решили помочь другим в решении их проблем, а так же пользователям с поиском самых свежих и качественных инфопродуктов. За 4 с небольшим месяца мы создали этот форум на который заходят ежедневно тысячи человек и посещаемость постоянно растёт. Мы создали панель лицензирования для защиты PHP скриптов от воровства и SEO панель для мониторинга наших сайтов и выбора верной стратегии их развития. Мы надеемся что то что мы создали пригодится Вам и возможно Вы поможете нам развиваться и совершенствоваться вместе с Вами.

Статистика форума

Темы
406.671
Сообщения
465.116
Пользователи
84.730
Новый пользователь
Станислав788

Приложения форума для iOS и Android


У ркн там нет власти ;)
Приватные разговоры
Помощь Пользователи
    Вы не присоединились ни к одной комнате.