За последнюю неделю опубликовано 34 новых материалов.
Инструкция новичку Путеводитель по форуму Прокси для Telegram Показать подсказки , это бомба!

Скачать Спортлото-82 (1982) SATRip от New-Team бесплатно через торрент

  • Поучаствуй (в качестве покупателя) в любых пяти совместных покупках (кроме завершённых и "Моментальных") и получи группу "Новичок" навсегда -> ссылка на раздел
  • Получай до 480 рублей за каждого приглашенного пользователя!
    представляем Вам очередное расширение партнерской программы, подробности описаны тут -> ссылка
  • 90% материалов доступно к скачиванию после простой регистрации!
    Если же ты хочешь скачивать материалы без требования оставлять отзывы то получи группу "Новичок", 10 способов повышения описаны тут -> ссылка
  • К сожалению количество битых ссылок растет и мы уже не можем их оперативно восстанавливать поэтому просим помощи у каждого нашего пользователя.
    С сегодняшнего дня, за каждую восстановленную ссылку мы заплатим Вам.
    Подробнее тут -> ссылка
  • Перенесем твои заслуги с другого ресурса!
    Мы понимаем как сложно прокачивать аккаунты на форумах, вроде раскачал аккаунт, а тут появляется ресурс в 100 раз круче но тоже с системой прокачки и снова качать аккаунт...
    Предлагаем вам перенести Ваши заслуги на другом подобном ресурсе к нам.
    Подробности описаны тут -> ссылка
  • Вы можете получать по 2.5% с каждой покупки и продажи на маркете! Подробности в теме Партнёрская программа
Если Вы не хотите скачивать, Вы всегда можетепосмотретьонлайн, просто нажмите кнопку ниже :

Открыть плеер

Torrent_Bot

Торрент-Бот
Бот форума
4 Окт 2016
93
160
20
Страна: CCCP
Производство: Мосфильм

Жанр: комедия, приключения
Год выпуска: 1982
Продолжительность: 01:28:35

Перевод: не требуется
Оригинальная аудиодорожка: русский
Cубтитры: нет

Режиссер: Леонид Гайдай

В ролях:
Альгис Арлаускас, Светлана Аманова, Михаил Пуговкин, Михаил Кокшенов, Денис Кмит, Нина Гребешкова, Андрей Толшин, Борислав Брондуков, Луиза Мосендз, Сергей Филиппов, Абессалом Лория, Виктор Уральский, Юрий Попович, Вера Ивлева, Татьяна Игнатова, Темурмалик Юнусов, Владимир Мышкин...


На один из билетов «Спортлото» выпадает крупный выигрыш. Однако билет оказывается потерянным. В поисках его герои попадают во множество занятных переделок, над которыми зритель веселится от души…





Исходник: DVВ
Тип релиза: SATRip
Контейнер: AVI

Видео: 688x384 (16:9), 25 fps, XviD ~ 1037 kbps avg, 0.157 bit/pixel
Аудио: 48 kHz, MP3 2.0, 128 kbps

Раздача от:
MediaInfo
Общее
Полное имя : Sportloto-82.1982.SATRip-745_[New-team]_by_AVP_Studio.avi
Формат : AVI
Формат/Информация : Audio Video Interleave
Размер файла : 744 Мбайт
Продолжительность : 1 ч. 28 м.
Общий поток : 1175 Кбит/сек
Программа кодирования : VirtualDubModRus 1.5.10.2 (build 2542/release)
Библиотека кодирования : VirtualDubMod build 2542/release

Видео
Идентификатор : 0
Формат : MPEG-4 Visual
Профиль формата : Advanced [email protected]
Параметр BVOP формата : 1
Параметр QPel формата : Нет
Параметр GMC формата : Без точки перехода
Параметр матрицы формата : Выборочная
Идентификатор кодека : XVID
Идентификатор кодека/Подсказка : XviD
Продолжительность : 1 ч. 28 м.
Битрейт : 1037 Кбит/сек
Ширина : 688 пикселей
Высота : 384 пикселя
Соотношение сторон : 16:9
Частота кадров : 25,000 кадров/сек
Цветовое пространство : YUV
Субдискретизация насыщенности : 4:2:0
Битовая глубина : 8 бит
Тип развёртки : Прогрессивная
Метод сжатия : С потерями
Бит/(Пиксели*Кадры) : 0.157
Размер потока : 657 Мбайт (88%)
Библиотека кодирования : XviD 73

Аудио
Идентификатор : 1
Формат : MPEG Audio
Версия формата : Version 1
Профиль формата : Layer 3
Идентификатор кодека : 55
Идентификатор кодека/Подсказка : MP3
Продолжительность : 1 ч. 28 м.
Вид битрейта : Постоянный
Битрейт : 128 Кбит/сек
Каналы : 2 канала
Частота : 48,0 КГц
Метод сжатия : С потерями
Размер потока : 81,1 Мбайт (11%)
Выравнивание : Соединение по промежуткам
Продолжительность промежутка : 40 мс. (1,00 видеокадр)
Время предзагрузки промежутка : 504 мс.
Библиотека кодирования : LAME3.99r
Настройки программы : -m s -V 4 -q 2 -lowpass 17 -b 128
Скриншоты
Это интересно
Исполнительница главной роли Светлана Аманова — брюнетка, поэтому на съёмках ей приходилось периодически обесцвечивать волосы перекисью водорода.
Среди кандидатов на роль Павла и Степана рассматривался и очень популярный в то время Михаил Боярский.
На роль директора турбазы изначально рассматривался Михаил Пуговкин, но в итоге эту роль отдали «мастеру эпизода» — Бориславу Брондукову, а Пуговкину досталась роль главного антагониста — «Сан Саныча».
По утверждению Луизы Мосендз, её встретила в коридоре ассистентка по актёрам, которая тут же отвела девушку к Гайдаю, а тот практически сразу утвердил её на роль Аллы Дмитриевны.
Место съёмок — Крым, железнодорожный вокзал и базар — Феодосия, стоянка «автокочевников» — Мыс Капчик. Турбаза «Орлиный приют» — горный массив Кара-Даг. Дом, в котором жили Сан Саныч и Костя Луков, находится в Феодосии по адресу ул. Прямая, 1.
Пляж, где купается и загорает Константин — городской пляж Алушты. На съёмках Сан Саныча и Степана в эпизодах с лодкой виден мыс Плака, также на заднем плане видна Медведь-Гора (Аю-Даг).
Большой прямоугольный камень, который обходит Сан Саныч и дерево, с которого Никулин бросался орехами («Орех Никулина») из другого к/ф Гайдая «Кавказская пленница, или Новые приключения Шурика» находятся на расстоянии нескольких метров друг от друга.
Имя писателя Гениана Зеленого, детективом которого увлечены герои фильма, является аллюзией на популярного в то время среди читателей Юлиана Семенова.
Сцену жаркого летнего дня, когда Таня (героиня Светланы Амановой) исполняет песню «Землю обходит любовь» снимался в условиях сильного холода. На фотографиях, сделанных в тот же день, Альгис в пальто и шапке. В кадре у Светланы всё время синели губы от холода
 

Вложения

  • 15,8 KB Просмотры: 1
    Личеров 0
    Сидеров 0
    Файлов 1
    Объем 744,3 MB

Привет!

Мы группа людей которые решили помочь другим в решении их проблем, а так же пользователям с поиском самых свежих и качественных инфопродуктов. За 4 с небольшим месяца мы создали этот форум на который заходят ежедневно тысячи человек и посещаемость постоянно растёт. Мы создали панель лицензирования для защиты PHP скриптов от воровства и SEO панель для мониторинга наших сайтов и выбора верной стратегии их развития. Мы надеемся что то что мы создали пригодится Вам и возможно Вы поможете нам развиваться и совершенствоваться вместе с Вами.

Статистика форума

Темы
406.599
Сообщения
464.996
Пользователи
84.337
Новый пользователь
Мих64

Приложения форума для iOS и Android


У ркн там нет власти ;)
Приватные разговоры
Помощь Пользователи
    Вы не присоединились ни к одной комнате.