За последнюю неделю опубликовано 66 новых материалов.
Инструкция новичку Путеводитель по форуму Прокси для Telegram Показать подсказки , это бомба!

Скачать Список Эдриана Мессенджера / The List of Adrian Messenger (1963) BDRip-AVC от msltel | P бесплатно через торрент

  • Поучаствуй (в качестве покупателя) в любых пяти совместных покупках (кроме завершённых и "Моментальных") и получи группу "Новичок" навсегда -> ссылка на раздел
  • Получай до 480 рублей за каждого приглашенного пользователя!
    представляем Вам очередное расширение партнерской программы, подробности описаны тут -> ссылка
  • 90% материалов доступно к скачиванию после простой регистрации!
    Если же ты хочешь скачивать материалы без требования оставлять отзывы то получи группу "Новичок", 10 способов повышения описаны тут -> ссылка
  • К сожалению количество битых ссылок растет и мы уже не можем их оперативно восстанавливать поэтому просим помощи у каждого нашего пользователя.
    С сегодняшнего дня, за каждую восстановленную ссылку мы заплатим Вам.
    Подробнее тут -> ссылка
  • Перенесем твои заслуги с другого ресурса!
    Мы понимаем как сложно прокачивать аккаунты на форумах, вроде раскачал аккаунт, а тут появляется ресурс в 100 раз круче но тоже с системой прокачки и снова качать аккаунт...
    Предлагаем вам перенести Ваши заслуги на другом подобном ресурсе к нам.
    Подробности описаны тут -> ссылка
  • Вы можете получать по 2.5% с каждой покупки и продажи на маркете! Подробности в теме Партнёрская программа
Если Вы не хотите скачивать, Вы всегда можетепосмотретьонлайн, просто нажмите кнопку ниже :

Открыть плеер

Torrent_Bot

Торрент-Бот
Бот форума
4 Окт 2016
92
163
20



Название: Список Эдриана Мессенджера
Оригинальное название: The List of Adrian Messenger
Год выпуска: 1963
Страна: США
Жанр: детектив, триллер
Продолжительность: 01:38:05
Перевод: профессиональный многоголосый
Режиссер: Джон Хьюстон
В ролях: Тони Кёртис, Кирк Дуглас, Бёрт Ланкастер, Роберт Митчэм, Фрэнк Синатра, Джордж К. Скотт, Дана Уинтер, Клайв Брук, Глэдис Купер, Херберт Маршалл, Джон Меривэйл, Марсель Далио, Бернард Арчард, Тони Хьюстон, Рональд Лонг, Джимми Чартерс, Тим Дюран, Пэтти Элдер, Бернард Фокс, Делфи Лоуренс, Мона Лилиан, Джо Линч, Стэйси Морган, Барбара Моррисон, Дженнифер Рэйне, Анна Ван Дер Хайди

О фильме: Энтони Гетрин, британский полковник в отставке, получает от своего друга Адриана Мессенджера список из 10 имён с просьбой узнать их местонахождение. Когда самолет Мессенджера взрывается, Гетрин начинает наводить справки о лицах из списка и узнаёт, что у всех была сходная судьба, что убийца, мастер изменения внешности, для каждой жертвы полностью видоизменял себя. Все жертвы были военнопленными в Бирме во время Второй мировой войны и все знали, кто среди них был предателем... Фильм по одноимённому роману Филипа Макдональда.



Качество: BDRip-AVC
Формат: MKV
Видео: MPEG-4 AVC, 2741 Кбит/с, 1024x554, 23.976 кадр/с
Аудио 1: русский, AC3, 192 kbps, 2 ch, 48 kHz [закадровый многоголосый]
Аудио 2: английский, AC3, 192 kbps, 2 ch, 48 kHz [оригинал]
Субтитры: английские
Главы/чаптеры

MediaInfo
Общее
Уникальный идентификатор : 230504462296606615474657031757007053380 (0xAD698B6C8E79552188EFDFA382166244)
Полное имя : D:VideoСписок Эдриана Мессенджера.1963.BDRip-AVC msltel.mkv
Формат : Matroska
Версия формата : Version 4
Размер файла : 2,14 Гбайт
Продолжительность : 1 ч. 38 м.
Общий поток : 3 127 Кбит/сек
Название фильма : Rip msltel
Дата кодирования : UTC 2020-07-19 01:43:57
Программа кодирования : mkvmerge v8.2.0 ('World of Adventure') 64bit
Библиотека кодирования : libebml v1.3.1 + libmatroska v1.4.2

Видео
Идентификатор : 1
Формат : AVC
Формат/Информация : Advanced Video Codec
Профиль формата : [email protected]
Настройки формата : CABAC / 14 Ref Frames
Параметр CABAC формата : Да
Параметр RefFrames формата : 14 кадров
Идентификатор кодека : V_MPEG4/ISO/AVC
Продолжительность : 1 ч. 38 м.
Битрейт : 2 741 Кбит/сек
Ширина : 1 024 пикселя
Высота : 554 пикселя
Соотношение сторон : 1,85:1
Режим частоты кадров : Постоянный
Частота кадров : 23,976 (24000/1001) кадра/сек
Цветовое пространство : YUV
Субдискретизация насыщенности : 4:2:0
Битовая глубина : 8 бит
Тип развёртки : Прогрессивная
Бит/(Пиксели*Кадры) : 0.202
Размер потока : 1,88 Гбайт (88%)
Библиотека кодирования : x264 core 159 r2991 1771b55
Настройки программы : cabac=1 / ref=14 / deblock=1:-2:-2 / analyse=0x3:0x113 / me=umh / subme=11 / psy=1 / psy_rd=1.00:0.15 / mixed_ref=1 / me_range=32 / chroma_me=1 / trellis=2 / 8x8dct=1 / cqm=0 / deadzone=21,11 / fast_pskip=0 / chroma_qp_offset=-3 / threads=6 / lookahead_threads=1 / sliced_threads=0 / nr=0 / decimate=1 / interlaced=0 / bluray_compat=0 / constrained_intra=0 / bframes=8 / b_pyramid=2 / b_adapt=2 / b_bias=0 / direct=1 / weightb=1 / open_gop=0 / weightp=2 / keyint=230 / keyint_min=23 / scenecut=40 / intra_refresh=0 / rc_lookahead=40 / rc=crf / mbtree=1 / crf=18.8 / qcomp=0.60 / qpmin=0 / qpmax=69 / qpstep=4 / vbv_maxrate=50000 / vbv_bufsize=62500 / crf_max=0.0 / nal_hrd=none / filler=0 / ip_ratio=1.40 / aq=1:1.00
Язык : English
Default : Да
Forced : Нет

Аудио #1
Идентификатор : 2
Формат : AC-3
Формат/Информация : Audio Coding 3
Коммерческое название : Dolby Digital
Идентификатор кодека : A_AC3
Продолжительность : 1 ч. 38 м.
Вид битрейта : Постоянный
Битрейт : 192 Кбит/сек
Каналы : 2 канала
Channel layout : L R
Частота : 48,0 КГц
Частота кадров : 31,250 кадров/сек (1536 SPF)
Метод сжатия : С потерями
Размер потока : 135 Мбайт (6%)
Заголовок : MVO
Язык : Russian
Service kind : Complete Main
Default : Да
Forced : Нет

Аудио #2
Идентификатор : 3
Формат : AC-3
Формат/Информация : Audio Coding 3
Коммерческое название : Dolby Digital
Идентификатор кодека : A_AC3
Продолжительность : 1 ч. 38 м.
Вид битрейта : Постоянный
Битрейт : 192 Кбит/сек
Каналы : 2 канала
Channel layout : L R
Частота : 48,0 КГц
Частота кадров : 31,250 кадров/сек (1536 SPF)
Метод сжатия : С потерями
Размер потока : 135 Мбайт (6%)
Заголовок : оригинал
Язык : English
Service kind : Complete Main
Default : Нет
Forced : Нет

Текст
Идентификатор : 4
Формат : UTF-8
Идентификатор кодека : S_TEXT/UTF8
Идентификатор кодека/Информация : UTF-8 Plain Text
Продолжительность : 1 ч. 36 м.
Битрейт : 69 бит/сек
Count of elements : 1417
Размер потока : 49,2 Кбайт (0%)
Заголовок : английские
Язык : English
Default : Нет
Forced : Нет

Меню
00:00:00.000 : en:Chapter 1
00:10:00.600 : en:Chapter 2
00:20:01.200 : en:Chapter 3
00:30:01.800 : en:Chapter 4
00:40:02.400 : en:Chapter 5
00:50:03.000 : en:Chapter 6
01:00:03.600 : en:Chapter 7
01:10:04.200 : en:Chapter 8
01:20:04.800 : en:Chapter 9
01:30:05.400 : en:Chapter 10
01:38:04.629 : en:Chapter 11
 

Вложения

  • 11,6 KB Просмотры: 0
    Личеров 0
    Сидеров 0
    Файлов 1
    Объем 2,1 GB

Привет!

Мы группа людей которые решили помочь другим в решении их проблем, а так же пользователям с поиском самых свежих и качественных инфопродуктов. За 4 с небольшим месяца мы создали этот форум на который заходят ежедневно тысячи человек и посещаемость постоянно растёт. Мы создали панель лицензирования для защиты PHP скриптов от воровства и SEO панель для мониторинга наших сайтов и выбора верной стратегии их развития. Мы надеемся что то что мы создали пригодится Вам и возможно Вы поможете нам развиваться и совершенствоваться вместе с Вами.

Статистика форума

Темы
406.677
Сообщения
465.122
Пользователи
84.733
Новый пользователь
Gen2203

Приложения форума для iOS и Android


У ркн там нет власти ;)
Приватные разговоры
Помощь Пользователи
    Вы не присоединились ни к одной комнате.