За последнюю неделю опубликовано 49 новых материалов.
Инструкция новичку Путеводитель по форуму Прокси для Telegram Показать подсказки , это бомба!

Скачать Спецназ. В осаде / S.W.A.T.: Under Siege (2017) BDRip 720p | Лицензия бесплатно через торрент

  • Поучаствуй (в качестве покупателя) в любых пяти совместных покупках (кроме завершённых и "Моментальных") и получи группу "Новичок" навсегда -> ссылка на раздел
  • Получай до 480 рублей за каждого приглашенного пользователя!
    представляем Вам очередное расширение партнерской программы, подробности описаны тут -> ссылка
  • 90% материалов доступно к скачиванию после простой регистрации!
    Если же ты хочешь скачивать материалы без требования оставлять отзывы то получи группу "Новичок", 10 способов повышения описаны тут -> ссылка
  • К сожалению количество битых ссылок растет и мы уже не можем их оперативно восстанавливать поэтому просим помощи у каждого нашего пользователя.
    С сегодняшнего дня, за каждую восстановленную ссылку мы заплатим Вам.
    Подробнее тут -> ссылка
  • Перенесем твои заслуги с другого ресурса!
    Мы понимаем как сложно прокачивать аккаунты на форумах, вроде раскачал аккаунт, а тут появляется ресурс в 100 раз круче но тоже с системой прокачки и снова качать аккаунт...
    Предлагаем вам перенести Ваши заслуги на другом подобном ресурсе к нам.
    Подробности описаны тут -> ссылка
  • Вы можете получать по 2.5% с каждой покупки и продажи на маркете! Подробности в теме Партнёрская программа
Если Вы не хотите скачивать, Вы всегда можетепосмотретьонлайн, просто нажмите кнопку ниже :

Открыть плеер

Torrent_Bot

Торрент-Бот
Бот форума
4 Окт 2016
93
160
20



Информация о фильме
Название: S.W.A.T.: Спецназ. В осаде
Оригинальное название: S.W.A.T.: Under Siege
Год выхода: 2017
Жанр: Боевик
Режиссер: Тони Гиглио
В ролях: Сэм Джагер, Майкл Джей Уайт, Тай Олссон, Эдрианн Палики, Паскаль Хаттон, Моник Гэндертон, Оливия Ченг, Кира Загорски, Майк Допуд, Мэттью Мэрсден

О фильме:
В осаде рассказывает о совместной операции отдела по борьбе с наркотраффиком и спецназа, направленной на устранение членов наркокартеля. Съёмочная площадка картины Спецназ: В осаде собрала звёздный актёрский состав. Главную роль в ленте исполнил американский актёр, режиссёр, продюсер и сценарист Сэм Джагер, звезда сериалов Клиника, C. S. I. Место преступления, Скорая помощь. Коллегой Сэма Джагера по съёмкам стал Майкл Джей Уайт, ранее засветившийся в таких кассовых фильмах, как Тёмный рыцарь, Неоспоримый-2, а так же телесериалах Стрела и C. S. I.: Майами. Фильм Спецназ: В осаде получил положительные оценки от кинокритиков ещё задолго до выхода на большие экраны.



Страна: США
Студия: Original Film
Продолжительность: 01:29:00
Перевод: Профессиональный (многоголосый, закадровый)[Blu-ray СЕЕ]

Файл
Качество: BDRip 720p
Формат: MKV
Кодек: MPEG-4 AVC
Видео: 1280x720 (16:9), 23,976 fps, MPEG-4 AVC ~ 7000 Кbps avg, 0.317 bit/pixel
Аудио: АС3, 48 kHz, 6 ch, ~640.00 kbps avg | русский | Профессиональный (многоголосый, закадровый)[Blu-ray СЕЕ]
Аудио: АС3, 48 kHz, 6 ch, ~640.00 kbps avg | английский | Оригинал

Субтитры: Russian, English, English (SDH), English (SDH COLORED)
Семпл

Инфо-файл
Общее
Уникальный идентификатор : 171908805207432640448217324792847579224 (0x81546E7B0FF73ECC8A0A0BD36D90B858)
Полное имя : D:TorrentsЗавершенныеS.W.A.T. Under.Siege.2017.720p.BluRay.Rus.Eng.HDCLUB-SbR.mkv
Формат : Matroska
Версия формата : Version 4 / Version 2
Размер файла : 5,15 Гбайт
Продолжительность : 1 ч. 29 м.
Общий поток : 8282 Кбит/сек
Дата кодирования : UTC 2017-07-18 18:27:01
Программа кодирования : mkvmerge v13.0.0 ('The Juggler') 64bit
Библиотека кодирования : libebml v1.3.4 + libmatroska v1.4.5
Обложка : Yes
Attachments : cover.jpg

Видео
Идентификатор : 1
Формат : AVC
Формат/Информация : Advanced Video Codec
Профиль формата : [email protected]
Параметр CABAC формата : Да
Параметр ReFrames формата : 9 кадров
Идентификатор кодека : V_MPEG4/ISO/AVC
Продолжительность : 1 ч. 29 м.
Битрейт : 7000 Кбит/сек
Ширина : 1280 пикселей
Высота : 720 пикселей
Соотношение сторон : 16:9
Режим частоты кадров : Постоянный
Частота кадров : 23,976 (23976/1000) кадра/сек
Цветовое пространство : YUV
Субдискретизация насыщенности : 4:2:0
Битовая глубина : 8 бит
Тип развёртки : Прогрессивная
Бит/(Пиксели*Кадры) : 0.317
Размер потока : 4,35 Гбайт (85%)
Библиотека кодирования : x264 core 152 r2851kMod ba24899
Настройки программы : cabac=1 / ref=9 / deblock=1:-3:-3 / analyse=0x3:0x133 / me=umh / subme=10 / psy=1 / fade_compensate=0.00 / psy_rd=1.07:0.05 / mixed_ref=1 / me_range=32 / chroma_me=1 / trellis=2 / 8x8dct=1 / cqm=0 / deadzone=21,11 / fast_pskip=1 / chroma_qp_offset=-3 / threads=6 / lookahead_threads=1 / sliced_threads=0 / nr=0 / decimate=1 / interlaced=0 / bluray_compat=0 / constrained_intra=0 / bframes=12 / b_pyramid=2 / b_adapt=2 / b_bias=0 / direct=3 / weightb=1 / open_gop=0 / weightp=2 / keyint=250 / keyint_min=23 / scenecut=40 / intra_refresh=0 / rc=2pass / mbtree=0 / bitrate=7000 / ratetol=1.0 / qcomp=0.70 / qpmin=0 / qpmax=69 / qpstep=4 / cplxblur=20.0 / qblur=0.5 / ip_ratio=1.30 / pb_ratio=1.20 / aq=3:0.80
Язык : English
Default : Да
Forced : Нет
Цветовой диапазон : Limited
Коэффициенты матрицы : BT.709

Аудио #1
Идентификатор : 2
Формат : AC-3
Формат/Информация : Audio Coding 3
Параметр Endianness формата : Big
Идентификатор кодека : A_AC3
Продолжительность : 1 ч. 29 м.
Вид битрейта : Постоянный
Битрейт : 640 Кбит/сек
Каналы : 6 каналов
Расположение каналов : Front: L C R, Side: L R, LFE
Частота : 48,0 КГц
Частота кадров : 31,250 кадров/сек (1536 spf)
Битовая глубина : 16 бит
Метод сжатия : С потерями
Размер потока : 407 Мбайт (8%)
Заголовок : Многоголосый закадровый
Язык : Russian
Default : Да
Forced : Нет

Аудио #2
Идентификатор : 3
Формат : AC-3
Формат/Информация : Audio Coding 3
Параметр Endianness формата : Big
Идентификатор кодека : A_AC3
Продолжительность : 1 ч. 29 м.
Вид битрейта : Постоянный
Битрейт : 640 Кбит/сек
Каналы : 6 каналов
Расположение каналов : Front: L C R, Side: L R, LFE
Частота : 48,0 КГц
Частота кадров : 31,250 кадров/сек (1536 spf)
Битовая глубина : 16 бит
Метод сжатия : С потерями
Размер потока : 407 Мбайт (8%)
Язык : English
Default : Нет
Forced : Нет

Текст #1
Идентификатор : 4
Формат : UTF-8
Идентификатор кодека : S_TEXT/UTF8
Идентификатор кодека/Информация : UTF-8 Plain Text
Продолжительность : 1 ч. 27 м.
Битрейт : 92 бит/сек
ElementCount : 1018
Размер потока : 59,8 Кбайт (0%)
Язык : Russian
Default : Нет
Forced : Нет

Текст #2
Идентификатор : 5
Формат : UTF-8
Идентификатор кодека : S_TEXT/UTF8
Идентификатор кодека/Информация : UTF-8 Plain Text
Продолжительность : 1 ч. 27 м.
Битрейт : 50 бит/сек
ElementCount : 992
Размер потока : 32,5 Кбайт (0%)
Язык : English
Default : Нет
Forced : Нет

Текст #3
Идентификатор : 6
Формат : UTF-8
Идентификатор кодека : S_TEXT/UTF8
Идентификатор кодека/Информация : UTF-8 Plain Text
Продолжительность : 1 ч. 28 м.
Битрейт : 56 бит/сек
ElementCount : 1128
Размер потока : 36,6 Кбайт (0%)
Заголовок : SDH
Язык : English
Default : Нет
Forced : Нет

Текст #4
Идентификатор : 7
Формат : UTF-8
Идентификатор кодека : S_TEXT/UTF8
Идентификатор кодека/Информация : UTF-8 Plain Text
Продолжительность : 1 ч. 28 м.
Битрейт : 67 бит/сек
ElementCount : 1128
Размер потока : 43,8 Кбайт (0%)
Заголовок : SDH.Colered
Язык : English
Default : Нет
Forced : Нет

Меню
00:00:00.000 : en:00:00:00.000
00:05:33.041 : en:00:05:33.041
00:12:39.592 : en:00:12:39.592
00:17:26.003 : en:00:17:26.003
00:22:56.917 : en:00:22:56.917
00:28:27.164 : en:00:28:27.164
00:34:30.902 : en:00:34:30.902
00:39:03.508 : en:00:39:03.508
00:45:07.663 : en:00:45:07.663
00:50:48.629 : en:00:50:48.629
00:56:50.907 : en:00:56:50.907
01:02:46.763 : en:01:02:46.763
01:07:09.317 : en:01:07:09.317
01:12:15.540 : en:01:12:15.540
01:16:50.606 : en:01:16:50.606
01:23:16.992 : en:01:23:16.992
Скриншоты


 

Вложения

  • 26,8 KB Просмотры: 0
    Личеров 0
    Сидеров 0
    Файлов 1
    Объем 5,1 GB

Привет!

Мы группа людей которые решили помочь другим в решении их проблем, а так же пользователям с поиском самых свежих и качественных инфопродуктов. За 4 с небольшим месяца мы создали этот форум на который заходят ежедневно тысячи человек и посещаемость постоянно растёт. Мы создали панель лицензирования для защиты PHP скриптов от воровства и SEO панель для мониторинга наших сайтов и выбора верной стратегии их развития. Мы надеемся что то что мы создали пригодится Вам и возможно Вы поможете нам развиваться и совершенствоваться вместе с Вами.

Статистика форума

Темы
406.640
Сообщения
465.116
Пользователи
84.570
Новый пользователь
Azari666

Приложения форума для iOS и Android


У ркн там нет власти ;)
Приватные разговоры
Помощь Пользователи
    Вы не присоединились ни к одной комнате.