За последнюю неделю опубликовано 97 новых материалов.
Инструкция новичку Путеводитель по форуму Прокси для Telegram Показать подсказки , это бомба!

Скачать Спасти Ленинград (2019) BDRip-AVC от New-Team бесплатно через торрент

  • Поучаствуй (в качестве покупателя) в любых пяти совместных покупках (кроме завершённых и "Моментальных") и получи группу "Новичок" навсегда -> ссылка на раздел
  • Получай до 480 рублей за каждого приглашенного пользователя!
    представляем Вам очередное расширение партнерской программы, подробности описаны тут -> ссылка
  • 90% материалов доступно к скачиванию после простой регистрации!
    Если же ты хочешь скачивать материалы без требования оставлять отзывы то получи группу "Новичок", 10 способов повышения описаны тут -> ссылка
  • К сожалению количество битых ссылок растет и мы уже не можем их оперативно восстанавливать поэтому просим помощи у каждого нашего пользователя.
    С сегодняшнего дня, за каждую восстановленную ссылку мы заплатим Вам.
    Подробнее тут -> ссылка
  • Перенесем твои заслуги с другого ресурса!
    Мы понимаем как сложно прокачивать аккаунты на форумах, вроде раскачал аккаунт, а тут появляется ресурс в 100 раз круче но тоже с системой прокачки и снова качать аккаунт...
    Предлагаем вам перенести Ваши заслуги на другом подобном ресурсе к нам.
    Подробности описаны тут -> ссылка
  • Вы можете получать по 2.5% с каждой покупки и продажи на маркете! Подробности в теме Партнёрская программа
Если Вы не хотите скачивать, Вы всегда можетепосмотретьонлайн, просто нажмите кнопку ниже :

Открыть плеер

Torrent_Bot

Торрент-Бот
Бот форума
4 Окт 2016
124
96
20


Спасти Ленинград





Страна: Россия
Жанр: драма, военный
Год выпуска: 2019
Продолжительность: 01:37:14

Перевод: Не требуется
Субтитры: русские (форсированные, SDH)
Оригинальная аудиодорожка: русский

Режиссер: Алексей Козлов

В ролях: Мария Мельникова, Андрей Миронов-Удалов, Гела Месхи, Анастасия Мельникова, Валерий Дегтярь, Марина Комарова, Виталий Кищенко, Алексей Шевченков, Борис Щербаков, Инга Оболдина

Описание: Сентябрь 1941 года. Юные влюбленные Костя и Настя волею обстоятельств оказываются на барже, которая должна вывезти людей из блокадного Ленинграда. Ночью судно попадает в шторм и терпит бедствие, на месте трагедии первыми оказываются вовсе не спасатели, а вражеские самолеты.



Релиз:

Автор рипа: stalkerok

Сэмпл

Качество видео: BDRip-AVC | Исходник: Flucht.aus.Leningrad.2019.DUAL.COMPLETE.BLURAY-UNiVERSUM
Формат видео: MKV
Видео кодек: AVC
Аудио кодек: AC3
Видео: AVC, 1723 Кбит/сек, 966x404 (2.40:1), 24 кадр/сек
Аудио: AC3, 448 Кбит/сек, 48 КГц, 5.1 - русский | Blu-Ray GER
Навигация по главам: есть

x264/MediaInfo
---[Information] [02.07.2019 3:38:56] x264 [info]: frame I:799 Avg QP:18.12 size: 37362
---[Information] [02.07.2019 3:38:56] x264 [info]: frame P:34924 Avg QP:20.17 size: 17327
---[Information] [02.07.2019 3:38:56] x264 [info]: frame B:104310 Avg QP:22.67 size: 5964

General
Unique ID : 286048456405043035861170762928691593956 (0xD732EDC41BAB87F1FD53C38917ABC2E4)
Complete name : C:tempSpasti LeningradSpasti.Leningrad.2019.BDRip.x264.Rus.stalkerok.New-Team.mkv
Format : Matroska
Format version : Version 4 / Version 2
File size : 1.48 GiB
Duration : 1 h 37 min
Overall bit rate : 2 173 kb/s
Movie name : Спасти Ленинград (2019) | Rip by stalkerok
Encoded date : UTC 2019-07-02 07:01:53
Writing application : mkvmerge v33.1.0 ('Primrose') 64-bit
Writing library : libebml v1.3.7 + libmatroska v1.5.0

Video
ID : 1
Format : AVC
Format/Info : Advanced Video Codec
Format profile : High@L4.1
Format settings, CABAC : Yes
Format settings, ReFrames : 12 frames
Codec ID : V_MPEG4/ISO/AVC
Duration : 1 h 37 min
Bit rate : 1 724 kb/s
Width : 966 pixels
Height : 404 pixels
Display aspect ratio : 2.40:1
Frame rate mode : Constant
Frame rate : 24.000 FPS
Color space : YUV
Chroma subsampling : 4:2:0
Bit depth : 8 bits
Scan type : Progressive
Bits/(Pixel*Frame) : 0.184
Stream size : 1.17 GiB (79%)
Title : Спасти Ленинград (2019) | Rip by stalkerok
Writing library : x264 core 157 r2945 72db437
Encoding settings : cabac=1 / ref=12 / deblock=1:-3:-2 / analyse=0x3:0x133 / me=umh / subme=10 / psy=1 / psy_rd=1.00:0.00 / mixed_ref=1 / me_range=32 / chroma_me=1 / trellis=2 / 8x8dct=1 / cqm=0 / deadzone=21,11 / fast_pskip=0 / chroma_qp_offset=-2 / threads=12 / lookahead_threads=3 / sliced_threads=0 / nr=0 / decimate=1 / interlaced=0 / bluray_compat=0 / constrained_intra=0 / bframes=14 / b_pyramid=2 / b_adapt=2 / b_bias=0 / direct=3 / weightb=1 / open_gop=0 / weightp=2 / keyint=240 / keyint_min=23 / scenecut=40 / intra_refresh=0 / rc_lookahead=60 / rc=crf / mbtree=0 / crf=19.0 / qcomp=0.65 / qpmin=0 / qpmax=69 / qpstep=4 / vbv_maxrate=50000 / vbv_bufsize=62500 / crf_max=0.0 / nal_hrd=none / filler=0 / ip_ratio=1.40 / pb_ratio=1.30 / aq=3:0.80 / zones=130578,140032,q=32
Default : Yes
Forced : No

Audio
ID : 2
Format : AC-3
Format/Info : Audio Coding 3
Mode extension : CM (complete main)
Format settings, Endianness : Big
Codec ID : A_AC3
Duration : 1 h 37 min
Bit rate mode : Constant
Bit rate : 448 kb/s
Channel(s) : 6 channels
Channel positions : Front: L C R, Side: L R, LFE
Sampling rate : 48.0 kHz
Frame rate : 31.250 FPS (1536 spf)
Compression mode : Lossy
Stream size : 312 MiB (21%)
Language : Russian
Default : Yes
Forced : No

Text #1
ID : 3
Format : UTF-8
Codec ID : S_TEXT/UTF8
Codec ID/Info : UTF-8 Plain Text
Duration : 9 s 661 ms
Bit rate : 245 b/s
Count of elements : 2
Stream size : 296 Bytes (0%)
Title : forced
Language : Russian
Default : Yes
Forced : No

Text #2
ID : 4
Format : UTF-8
Codec ID : S_TEXT/UTF8
Codec ID/Info : UTF-8 Plain Text
Duration : 1 h 29 min
Bit rate : 81 b/s
Count of elements : 1072
Stream size : 53.4 KiB (0%)
Title : SDH
Language : Russian
Default : No
Forced : No

Menu
00:00:00.000 : :Chapter 01
00:03:01.750 : :Chapter 02
00:09:04.625 : :Chapter 03
00:15:37.333 : :Chapter 04
00:22:33.750 : :Chapter 05
00:30:36.625 : :Chapter 06
00:34:29.833 : :Chapter 07
00:38:24.541 : :Chapter 08
00:43:42.250 : :Chapter 09
00:48:45.916 : :Chapter 10
00:53:19.875 : :Chapter 11
00:58:40.916 : :Chapter 12
01:07:26.041 : :Chapter 13
01:13:26.750 : :Chapter 14
01:18:02.541 : :Chapter 15
01:22:38.416 : :Chapter 16
01:26:42.583 : :Chapter 17
01:30:54.708 : :Chapter 18




 

Вложения

  • 16,5 KB Просмотры: 1
    Личеров 0
    Сидеров 0
    Файлов 1
    Объем 1,5 GB
Ваш e-mail не будет опубликован. Он потребуется для подтверждения Вашего поста.
Оформление текста Нажмите «Ввод», чтобы отправить ответ.

Привет!

Мы группа людей которые решили помочь другим в решении их проблем, а так же пользователям с поиском самых свежих и качественных инфопродуктов. За 4 с небольшим месяца мы создали этот форум на который заходят ежедневно тысячи человек и посещаемость постоянно растёт. Мы создали панель лицензирования для защиты PHP скриптов от воровства и SEO панель для мониторинга наших сайтов и выбора верной стратегии их развития. Мы надеемся что то что мы создали пригодится Вам и возможно Вы поможете нам развиваться и совершенствоваться вместе с Вами.

Статистика форума

Темы
378.778
Сообщения
418.232
Пользователи
50.148
Новый пользователь
Andrew100

Приложения форума для iOS и Android


У ркн там нет власти ;)
Приватные разговоры
Помощь Пользователи
    Вы не присоединились ни к одной комнате.