За последнюю неделю опубликовано 59 новых материалов.
Инструкция новичку Путеводитель по форуму Прокси для Telegram Показать подсказки , это бомба!

Скачать Спасибо деду за победу (2019) WEB-DL 1080p | iTunes бесплатно через торрент

  • Поучаствуй (в качестве покупателя) в любых пяти совместных покупках (кроме завершённых и "Моментальных") и получи группу "Новичок" навсегда -> ссылка на раздел
  • Получай до 480 рублей за каждого приглашенного пользователя!
    представляем Вам очередное расширение партнерской программы, подробности описаны тут -> ссылка
  • 90% материалов доступно к скачиванию после простой регистрации!
    Если же ты хочешь скачивать материалы без требования оставлять отзывы то получи группу "Новичок", 10 способов повышения описаны тут -> ссылка
  • К сожалению количество битых ссылок растет и мы уже не можем их оперативно восстанавливать поэтому просим помощи у каждого нашего пользователя.
    С сегодняшнего дня, за каждую восстановленную ссылку мы заплатим Вам.
    Подробнее тут -> ссылка
  • Перенесем твои заслуги с другого ресурса!
    Мы понимаем как сложно прокачивать аккаунты на форумах, вроде раскачал аккаунт, а тут появляется ресурс в 100 раз круче но тоже с системой прокачки и снова качать аккаунт...
    Предлагаем вам перенести Ваши заслуги на другом подобном ресурсе к нам.
    Подробности описаны тут -> ссылка
  • Вы можете получать по 2.5% с каждой покупки и продажи на маркете! Подробности в теме Партнёрская программа
Если Вы не хотите скачивать, Вы всегда можетепосмотретьонлайн, просто нажмите кнопку ниже :

Открыть плеер

Torrent_Bot

Торрент-Бот
Бот форума
4 Окт 2016
91
163
20



Информация о фильме
Название: Спасибо деду за победу
Год выпуска: 2019
Жанр:Комедия, семейный
Режиссёр: Теймураз Тания
В ролях: Егор Бероев, Ксения Алферова, Кесоу Хагба, Адгур Малия, Алексей Онежен, Софья Агумава, Теймураз Тания, Артём Быстров, Фархад Махмудов, Саида Отарова

Описание: Обычный городской мальчишка приезжает вместе с папой погостить в деревню к своему дедушке. Там его встречают не очень дружелюбные местные ребята и девочка, в которую он сразу влюбляется. Дедушка постоянно рассказывает смешные байки о своем славном военном прошлом, которые, открывают для него абсолютно новый, волшебный мир, учат главным жизненным ценностям и делают настоящим мужчиной.



Страна: Россия
Студия: Yellown, Black and White, Nart
Продолжительность: 01:24:03
Язык: Русский | iTunes

Файл
Качество: WEB-DL 1080p
Контейнер: MKV
Видео: MPEG4 AVC Video, H264, 2.40:1, 1920x802, 24.000 fps, 4478 kbps
Аудио: Russian: AC3, 6 ch, 384 kbps, 16 bits, 48.0 KHz - iTunes
Субтитры: Нет

Скриншоты

MediaInfo
Общее
Уникальный идентификатор : 240911532627900014758949422756252817357 (0xB53DDF9B4FFB0C16BE3A8AB47AF717CD)
Полное имя : Спасибо.деду.за.победу.2019.WEB-DL.1080p.mkv
Формат : Matroska
Версия формата : Version 2
Размер файла : 2,91 Гбайт
Продолжительность : 1 ч. 24 м.
Общий поток : 4961 Кбит/сек
Дата кодирования : UTC 2019-06-21 09:06:10
Программа кодирования : mkvmerge v5.8.0 ('No Sleep / Pillow') built on Sep 2 2012 15:37:04
Библиотека кодирования : libebml v1.2.3 + libmatroska v1.3.0

Видео
Идентификатор : 1
Формат : AVC
Формат/Информация : Advanced Video Codec
Профиль формата : [email protected]
Параметр CABAC формата : Да
Параметр RefFrames формата : 5 кадров
Идентификатор кодека : V_MPEG4/ISO/AVC
Продолжительность : 1 ч. 24 м.
Битрейт : 4478 Кбит/сек
Ширина : 1920 пикселей
Высота : 802 пикселя
Соотношение сторон : 2,40:1
Режим частоты кадров : Постоянный
Частота кадров : 24,000 кадра/сек
Цветовое пространство : YUV
Субдискретизация насыщенности : 4:2:0
Битовая глубина : 8 бит
Тип развёртки : Прогрессивная
Бит/(Пиксели*Кадры) : 0.121
Размер потока : 2,63 Гбайт (90%)
Заголовок : Спасибо.деду.за.победу.2019.WEB-DL.1080p
Язык : Russian
Default : Да
Forced : Нет
Цветовой диапазон : Limited
Основные цвета : BT.709
Характеристики трансфера : BT.709
Коэффициенты матрицы : BT.709

Аудио
Идентификатор : 2
Формат : AC-3
Формат/Информация : Audio Coding 3
Параметр Endianness формата : Big
Идентификатор кодека : A_AC3
Продолжительность : 1 ч. 24 м.
Вид битрейта : Постоянный
Битрейт : 384 Кбит/сек
Каналы : 6 каналов
Расположение каналов : Front: L C R, Side: L R, LFE
Частота : 48,0 КГц
Частота кадров : 31,250 кадров/сек (1536 SPF)
Битовая глубина : 16 бит
Метод сжатия : С потерями
Размер потока : 231 Мбайт (8%)
Заголовок : iTunes
Язык : Russian
Default : Да
Forced : Нет

Меню
00:00:00.000 : en:Глава 1
00:08:41.541 : en:Глава 2
00:17:09.291 : en:Глава 3
00:25:46.624 : en:Глава 4
00:34:09.499 : en:Глава 5
00:42:17.332 : en:Глава 6
00:51:01.873 : en:Глава 7
00:59:21.331 : en:Глава 8
01:07:42.664 : en:Глава 9
01:15:08.080 : en:Глава 10
 

Вложения

  • 15,5 KB Просмотры: 1
    Личеров 0
    Сидеров 0
    Файлов 1
    Объем 2,9 GB

Привет!

Мы группа людей которые решили помочь другим в решении их проблем, а так же пользователям с поиском самых свежих и качественных инфопродуктов. За 4 с небольшим месяца мы создали этот форум на который заходят ежедневно тысячи человек и посещаемость постоянно растёт. Мы создали панель лицензирования для защиты PHP скриптов от воровства и SEO панель для мониторинга наших сайтов и выбора верной стратегии их развития. Мы надеемся что то что мы создали пригодится Вам и возможно Вы поможете нам развиваться и совершенствоваться вместе с Вами.

Статистика форума

Темы
410.544
Сообщения
469.084
Пользователи
86.041
Новый пользователь
Quent

Приложения форума для iOS и Android


У ркн там нет власти ;)
Приватные разговоры
Помощь Пользователи
    Вы не присоединились ни к одной комнате.