За последнюю неделю опубликовано 30 новых материалов.
Инструкция новичку Путеводитель по форуму Прокси для Telegram Показать подсказки , это бомба!

Скачать Спартанец / Spartan (2004) BDRip 720p | D, P бесплатно через торрент

  • Поучаствуй (в качестве покупателя) в любых пяти совместных покупках (кроме завершённых и "Моментальных") и получи группу "Новичок" навсегда -> ссылка на раздел
  • Получай до 480 рублей за каждого приглашенного пользователя!
    представляем Вам очередное расширение партнерской программы, подробности описаны тут -> ссылка
  • 90% материалов доступно к скачиванию после простой регистрации!
    Если же ты хочешь скачивать материалы без требования оставлять отзывы то получи группу "Новичок", 10 способов повышения описаны тут -> ссылка
  • К сожалению количество битых ссылок растет и мы уже не можем их оперативно восстанавливать поэтому просим помощи у каждого нашего пользователя.
    С сегодняшнего дня, за каждую восстановленную ссылку мы заплатим Вам.
    Подробнее тут -> ссылка
  • Перенесем твои заслуги с другого ресурса!
    Мы понимаем как сложно прокачивать аккаунты на форумах, вроде раскачал аккаунт, а тут появляется ресурс в 100 раз круче но тоже с системой прокачки и снова качать аккаунт...
    Предлагаем вам перенести Ваши заслуги на другом подобном ресурсе к нам.
    Подробности описаны тут -> ссылка
  • Вы можете получать по 2.5% с каждой покупки и продажи на маркете! Подробности в теме Партнёрская программа
Если Вы не хотите скачивать, Вы всегда можетепосмотретьонлайн, просто нажмите кнопку ниже :

Открыть плеер

Torrent_Bot

Торрент-Бот
Бот форума
4 Окт 2016
93
160
20

Информация о фильме
Название: Спартанец
Оригинальное название: Spartan
Год выхода: 2004
Жанр: Боевик, Триллер, Драма, Криминал, Детектив
Режиссер: Дэвид Мэмет
В ролях: Вэл Килмер, Дерек Люк, Уильям Х. Мэйси, Тиа Тексада, Джереми Кэмпбелл, Боб Дженнингс, Лайонел Марк Смит, Джонни Месснер, Крис ЛаЦентра, Ренато Мано, Марк Фицджералд, Тони Мамет, Кларк Грегг, Рон Батлер, Стивен Калп, Винсент Гуастаферро, Роберт Белла, Лана Билзериан, Аарон Стэнфорд, Энн Морган

О фильме:
Законы древней Спарты были суровы: выживал сильнейший! Специальный агент секретной правительственной службы Скотт тому же самому учил рекрутов, которые хотели стать бойцами спецназа, — выживает сильнейший! Выживает тот, кто не раздумывает, когда надо нажать на спусковой крючок, и тот, кто выполняет приказ, не обсуждая его…
Скотт — лучший кандидат для выполнения опаснейшего задания: он должен найти пропавшую девушку Лору Ньютон раньше, чем ее похитители поймут, что у них в руках — не просто студентка Гарвардского университета, а дочь видного американского политика. Скотт идет по следу преступников, однако в срок не укладывается, и пронырливые журналисты оповещают общественность, что студентка, известная всей стране, не появилась на лекции в университете… А через несколько часов теленовости рассказывают о найденной в океане утонувшей Лоре Ньютон…



Страна: США, Германия
Студия: ApolloMedia, ApolloProMedia GmbH & Co. 1. Filmproduktion KG (I), Art Linson Productions
Продолжительность: 01:46:29
Перевод: Профессиональный (дублированный), профессиональный (многоголосый закадровый) PTP
Субтитры: Russian, English

Файл
Формат: Matroska
Качество: BDRip 720p [SPARTAN_BD_BLUEBIRD]
Видео: 1280x546 at 23.976 fps, [email protected], ~3376 kbps, 0.201 bpp
Аудио#1: 48 kHz, AC3 5.1, 448.00 kbps / DUB (Русский)
Аудио#2: 48 kHz, AC3 2.0, 192.00 kbps / MVO (Русский)
Аудио#3: 48 kHz, AC3 5.1, 448.00 kbps / Оригинал (Английский)
Аудио#4: 48 kHz, AC3 2.0, 192.00 kbps / Commentary (Английский)

***Релиз от:-=DoMiNo=-

M/I
x264 [info]: frame I:936 Avg QP:15.71 size: 63725
x264 [info]: frame P:29045 Avg QP:17.03 size: 32793
x264 [info]: frame B:123203 Avg QP:19.53 size: 13668

General
Format : Matroska
Format version : Version 4
File size : 3.46 GiB
Duration : 1 h 46 min
Overall bit rate : 4 659 kb/s
Movie name : Спартанец / Spartan (2004) / Спартанец.(2004).BDRip.720p.[-=DoMiNo=-]
Encoded date : UTC 2020-08-28 17:15:05
Writing application : mkvmerge v49.0.0 ('Sick Of Losing Soulmates') 64-bit
Writing library : libebml v1.4.0 + libmatroska v1.6.1
Cover : Yes
Attachments : Cover.jpg / Cover 2.jpg

Video
ID : 1
Format : AVC
Format/Info : Advanced Video Codec
Format profile : [email protected]
Format settings : CABAC / 11 Ref Frames
Format settings, CABAC : Yes
Format settings, Reference : 11 frames
Codec ID : V_MPEG4/ISO/AVC
Duration : 1 h 46 min
Bit rate : 3 376 kb/s
Width : 1 280 pixels
Height : 546 pixels
Display aspect ratio : 2.35:1
Frame rate mode : Constant
Frame rate : 23.976 (24000/1001) FPS
Color space : YUV
Chroma subsampling : 4:2:0
Bit depth : 8 bits
Scan type : Progressive
Bits/(Pixel*Frame) : 0.201
Stream size : 2.51 GiB (72%)
Title : -=DoMiNo=-
Writing library : x264 core 161 r3018 db0d417
Encoding settings : cabac=1 / ref=11 / deblock=1:-3:-3 / analyse=0x3:0x133 / me=umh / subme=10 / psy=1 / psy_rd=1.00:0.00 / mixed_ref=1 / me_range=32 / chroma_me=1 / trellis=2 / 8x8dct=1 / cqm=0 / deadzone=21,11 / fast_pskip=0 / chroma_qp_offset=-2 / threads=6 / lookahead_threads=1 / sliced_threads=0 / nr=0 / decimate=1 / interlaced=0 / bluray_compat=0 / constrained_intra=0 / bframes=12 / b_pyramid=2 / b_adapt=2 / b_bias=0 / direct=1 / weightb=1 / open_gop=0 / weightp=2 / keyint=250 / keyint_min=23 / scenecut=40 / intra_refresh=0 / rc_lookahead=60 / rc=crf / mbtree=0 / crf=18.5 / qcomp=0.60 / qpmin=0 / qpmax=69 / qpstep=4 / vbv_maxrate=50000 / vbv_bufsize=62500 / crf_max=0.0 / nal_hrd=none / filler=0 / ip_ratio=1.40 / pb_ratio=1.30 / aq=3:0.80
Language : English
Default : Yes
Forced : No
Color range : Limited
Color primaries : BT.709
Transfer characteristics : BT.709
Matrix coefficients : BT.709

Audio #1
ID : 2
Format : AC-3
Format/Info : Audio Coding 3
Commercial name : Dolby Digital
Codec ID : A_AC3
Duration : 1 h 46 min
Bit rate mode : Constant
Bit rate : 448 kb/s
Channel(s) : 6 channels
Channel layout : L R C LFE Ls Rs
Sampling rate : 48.0 kHz
Frame rate : 31.250 FPS (1536 SPF)
Compression mode : Lossy
Stream size : 341 MiB (10%)
Title : DUB
Language : Russian
Service kind : Complete Main
Default : Yes
Forced : No

Audio #2
ID : 3
Format : AC-3
Format/Info : Audio Coding 3
Commercial name : Dolby Digital
Codec ID : A_AC3
Duration : 1 h 46 min
Bit rate mode : Constant
Bit rate : 192 kb/s
Channel(s) : 2 channels
Channel layout : L R
Sampling rate : 48.0 kHz
Frame rate : 31.250 FPS (1536 SPF)
Compression mode : Lossy
Stream size : 146 MiB (4%)
Title : MVO_[РТР]
Language : Russian
Service kind : Complete Main
Default : No
Forced : No

Audio #3
ID : 4
Format : AC-3
Format/Info : Audio Coding 3
Commercial name : Dolby Digital
Codec ID : A_AC3
Duration : 1 h 46 min
Bit rate mode : Constant
Bit rate : 448 kb/s
Channel(s) : 6 channels
Channel layout : L R C LFE Ls Rs
Sampling rate : 48.0 kHz
Frame rate : 31.250 FPS (1536 SPF)
Compression mode : Lossy
Stream size : 341 MiB (10%)
Title : Original
Language : English
Service kind : Complete Main
Default : No
Forced : No

Audio #4
ID : 5
Format : AC-3
Format/Info : Audio Coding 3
Commercial name : Dolby Digital
Codec ID : A_AC3
Duration : 1 h 46 min
Bit rate mode : Constant
Bit rate : 192 kb/s
Channel(s) : 2 channels
Channel layout : L R
Sampling rate : 48.0 kHz
Frame rate : 31.250 FPS (1536 SPF)
Compression mode : Lossy
Stream size : 146 MiB (4%)
Title : Commentary
Language : English
Service kind : Complete Main
Default : No
Forced : No

Text #1
ID : 6
Format : UTF-8
Codec ID : S_TEXT/UTF8
Codec ID/Info : UTF-8 Plain Text
Duration : 1 h 41 min
Bit rate : 90 b/s
Count of elements : 940
Stream size : 67.5 KiB (0%)
Language : Russian
Default : No
Forced : No

Text #2
ID : 7
Format : UTF-8
Codec ID : S_TEXT/UTF8
Codec ID/Info : UTF-8 Plain Text
Duration : 1 h 38 min
Bit rate : 59 b/s
Count of elements : 1154
Stream size : 43.1 KiB (0%)
Language : English
Default : No
Forced : No

Menu
00:00:00.000 : :Глава 1
00:09:27.441 : :Глава 2
00:20:08.624 : :Глава 3
00:29:48.203 : :Глава 4
00:37:38.339 : :Глава 5
00:44:09.647 : :Глава 6
00:55:52.724 : :Глава 7
01:04:50.845 : :Глава 8
01:11:01.507 : :Глава 9
01:18:24.783 : :Глава 10
01:27:23.947 : :Глава 11
01:38:14.305 : :Глава 12
01:46:29.049 : :Глава 13
Скриншоты
Скриншоты
 

Вложения

  • 70,7 KB Просмотры: 0
    Личеров 0
    Сидеров 0
    Файлов 1
    Объем 3,5 GB

Привет!

Мы группа людей которые решили помочь другим в решении их проблем, а так же пользователям с поиском самых свежих и качественных инфопродуктов. За 4 с небольшим месяца мы создали этот форум на который заходят ежедневно тысячи человек и посещаемость постоянно растёт. Мы создали панель лицензирования для защиты PHP скриптов от воровства и SEO панель для мониторинга наших сайтов и выбора верной стратегии их развития. Мы надеемся что то что мы создали пригодится Вам и возможно Вы поможете нам развиваться и совершенствоваться вместе с Вами.

Статистика форума

Темы
406.605
Сообщения
465.028
Пользователи
84.390
Новый пользователь
князь владимир

Приложения форума для iOS и Android


У ркн там нет власти ;)
Приватные разговоры
Помощь Пользователи
    Вы не присоединились ни к одной комнате.