За последнюю неделю опубликовано 51 новых материалов.
Инструкция новичку Путеводитель по форуму Прокси для Telegram Показать подсказки , это бомба!

Скачать SOS, Дед Мороз или Все сбудется! (2015) WEB-DLRip-AVC от ExKinoRay | iTunes Russia бесплатно через торрент

  • Поучаствуй (в качестве покупателя) в любых пяти совместных покупках (кроме завершённых и "Моментальных") и получи группу "Новичок" навсегда -> ссылка на раздел
  • Получай до 480 рублей за каждого приглашенного пользователя!
    представляем Вам очередное расширение партнерской программы, подробности описаны тут -> ссылка
  • 90% материалов доступно к скачиванию после простой регистрации!
    Если же ты хочешь скачивать материалы без требования оставлять отзывы то получи группу "Новичок", 10 способов повышения описаны тут -> ссылка
  • К сожалению количество битых ссылок растет и мы уже не можем их оперативно восстанавливать поэтому просим помощи у каждого нашего пользователя.
    С сегодняшнего дня, за каждую восстановленную ссылку мы заплатим Вам.
    Подробнее тут -> ссылка
  • Перенесем твои заслуги с другого ресурса!
    Мы понимаем как сложно прокачивать аккаунты на форумах, вроде раскачал аккаунт, а тут появляется ресурс в 100 раз круче но тоже с системой прокачки и снова качать аккаунт...
    Предлагаем вам перенести Ваши заслуги на другом подобном ресурсе к нам.
    Подробности описаны тут -> ссылка
  • Вы можете получать по 2.5% с каждой покупки и продажи на маркете! Подробности в теме Партнёрская программа
Если Вы не хотите скачивать, Вы всегда можетепосмотретьонлайн, просто нажмите кнопку ниже :

Открыть плеер

Torrent_Bot

Торрент-Бот
Бот форума
4 Окт 2016
91
164
20
Информация о фильме

Оригинальное название: SOS, Дед Мороз или Все сбудется!
Год выпуска: 2015
Жанр:Комедия, семейный
Выпущено: Россия
Режиссер: Арман Геворгян
В ролях: Михаил Беспалов, Софья Спектор, Анатолий Белый, Алёна Бабенко, Дмитрий Назаров, Андрей Бедняков, Оксана Акиньшина, Алексей Бардуков, Полина Максимова, Сергей Рост


О фильме: Света отчаянно хочет, чтобы ее родители помирились. Она верит, что эту мечту обязательно исполнит Дед Мороз, только стоит найти его и попросить об этом. Как же кстати он встречается Свете как раз накануне Нового года. Только вот девочка приняла за Деда Мороза переодетого мошенника и обаятельного афериста Мышкина. Теперь эта парочка на пути к исполнению своих желаний вовлечет в круговорот новогодних приключений еще десяток ни в чем неповинных людей, у которых теперь тоже появится надежда встретить эту новогоднюю ночь счастливыми.






Файл

Качество: WEB-DLRip (AVC)
Видео: MPEG-4 AVC, 2684 Кбит/с, 1024x428, 25 кадр/с
Аудио: AC3, 6 ch, 384 Кбит/с
Размер: 1.86 ГБ
Продолжительность: 01:26:59
Язык: Русский


Озвучивание - (iTunes Russia)
Сохранены оригинальные чаптеры как на исходном WEB-DL.


x264
x264 [info]: frame I:1193 Avg QP:16.98 size: 68439
x264 [info]: frame P:32844 Avg QP:19.60 size: 24068
x264 [info]: frame B:96443 Avg QP:21.83 size: 9109
x264 [info]: consecutive B-frames: 2.0% 4.1% 7.4% 62.5% 6.5% 10.9% 1.9% 2.8% 1.4% 0.6%
x264 [info]: mb I I16..4: 5.9% 61.9% 32.2%
x264 [info]: mb P I16..4: 0.6% 12.9% 2.7% P16..4: 28.2% 32.5% 12.0% 4.8% 0.5% skip: 5.8%
x264 [info]: mb B I16..4: 0.1% 2.7% 0.5% B16..8: 28.7% 22.0% 5.0% direct: 6.9% skip:34.0% L0:36.8% L1:40.9% BI:22.3%
x264 [info]: 8x8 transform intra:77.5% inter:51.4%
x264 [info]: direct mvs spatial:98.1% temporal:1.9%
x264 [info]: coded y,uvDC,uvAC intra: 92.4% 83.8% 59.0% inter: 27.5% 18.9% 9.0%
x264 [info]: i16 v,h,dc,p: 34% 12% 7% 47%
x264 [info]: i8 v,h,dc,ddl,ddr,vr,hd,vl,hu: 12% 9% 6% 8% 12% 13% 13% 13% 14%
x264 [info]: i4 v,h,dc,ddl,ddr,vr,hd,vl,hu: 15% 9% 5% 8% 14% 14% 13% 11% 12%
x264 [info]: i8c dc,h,v,p: 36% 23% 20% 21%
x264 [info]: Weighted P-Frames: Y:4.2% UV:1.8%
x264 [info]: ref P L0: 56.1% 9.8% 14.7% 6.0% 4.4% 3.0% 2.3% 1.4% 1.1% 0.9% 0.1% 0.0%
x264 [info]: ref B L0: 78.6% 10.7% 4.5% 2.2% 1.5% 1.1% 0.9% 0.4% 0.2%
x264 [info]: ref B L1: 94.8% 5.2%
x264 [info]: kb/s:2683.30

Инфо-файл
Общее
Уникальный идентификатор : 197204153864193458825193225363828889728 (0x945C23754A5910999C6D97663121D880)
Полное имя : D:ЗагрузкиSOS.Ded.Moroz.Ili.Vsjo.Sbudetsja.2015.x264.WEB-DLRip.(AVC).ExKinoRay.mkv
Формат : Matroska
Версия формата : Version 2
Размер файла : 1,86 Гбайт
Продолжительность : 1 ч. 26 м.
Общий поток : 3069 Кбит/сек
Название фильма : SOS, Дед Мороз или Все сбудется!2015.Rip by: ollan
Дата кодирования : UTC 2016-01-01 19:03:58
Программа кодирования : mkvmerge v5.6.0 ('Kenya Kane') built on May 27 2012 16:44:04
Библиотека кодирования : libebml v1.2.3 + libmatroska v1.3.0

Видео
Идентификатор : 1
Формат : AVC
Формат/Информация : Advanced Video Codec
Профиль формата : [email protected]
Параметр CABAC формата : Да
Параметр ReFrames формата : 10 кадров
Идентификатор кодека : V_MPEG4/ISO/AVC
Продолжительность : 1 ч. 26 м.
Битрейт : 2684 Кбит/сек
Ширина : 1024 пикселя
Высота : 428 пикселей
Соотношение сторон : 2,40:1
Режим частоты кадров : Постоянный
Частота кадров : 25,000 кадров/сек
Цветовое пространство : YUV
Субдискретизация насыщенности : 4:2:0
Битовая глубина : 8 бит
Тип развёртки : Прогрессивная
Бит/(Пиксели*Кадры) : 0.245
Размер потока : 1,59 Гбайт (85%)
Библиотека кодирования : x264 core 125 r2200 999b753
Настройки программы : cabac=1 / ref=10 / deblock=1:-3:-3 / analyse=0x3:0x133 / me=umh / subme=11 / psy=1 / psy_rd=1.00:0.05 / mixed_ref=1 / me_range=48 / chroma_me=1 / trellis=2 / 8x8dct=1 / cqm=0 / deadzone=21,11 / fast_pskip=0 / chroma_qp_offset=-3 / threads=12 / lookahead_threads=2 / sliced_threads=0 / nr=0 / decimate=0 / interlaced=0 / bluray_compat=0 / constrained_intra=0 / bframes=9 / b_pyramid=2 / b_adapt=2 / b_bias=0 / direct=3 / weightb=1 / open_gop=0 / weightp=2 / keyint=250 / keyint_min=25 / scenecut=40 / intra_refresh=0 / rc=2pass / mbtree=0 / bitrate=2684 / ratetol=1.0 / qcomp=0.60 / qpmin=0 / qpmax=69 / qpstep=4 / cplxblur=20.0 / qblur=0.5 / ip_ratio=1.40 / pb_ratio=1.30 / aq=1:1.00
Язык : Russian
Default : Да
Forced : Нет

Аудио
Идентификатор : 2
Формат : AC-3
Формат/Информация : Audio Coding 3
Расширение режима : CM (complete main)
Параметр Endianness формата : Big
Идентификатор кодека : A_AC3
Продолжительность : 1 ч. 26 м.
Вид битрейта : Постоянный
Битрейт : 384 Кбит/сек
Каналы : 6 каналов
Расположение каналов : Front: L C R, Side: L R, LFE
Частота : 48,0 КГц
Битовая глубина : 16 бит
Метод сжатия : С потерями
Размер потока : 239 Мбайт (13%)
Заголовок : iTunes Russia
Язык : Russian
Default : Да
Forced : Нет

Меню
00:00:00.000 : ru:Chapter 01
00:05:34.000 : ru:Chapter 02
00:10:48.000 : ru:Chapter 03
00:16:37.000 : ru:Chapter 04
00:21:55.000 : ru:Chapter 05
00:27:11.000 : ru:Chapter 06
00:32:54.000 : ru:Chapter 07
00:37:57.000 : ru:Chapter 08
00:43:25.000 : ru:Chapter 09
00:48:29.000 : ru:Chapter 10
00:54:24.000 : ru:Chapter 11
00:59:41.000 : ru:Chapter 12
01:05:15.000 : ru:Chapter 13
01:10:36.000 : ru:Chapter 14
01:15:59.000 : ru:Chapter 15
01:21:13.000 : ru:Chapter 16

Скриншоты



Релиз от: Rip by:
 

Вложения

  • 19,7 KB Просмотры: 0
    Личеров 0
    Сидеров 0
    Файлов 1
    Объем 1,9 GB

Привет!

Мы группа людей которые решили помочь другим в решении их проблем, а так же пользователям с поиском самых свежих и качественных инфопродуктов. За 4 с небольшим месяца мы создали этот форум на который заходят ежедневно тысячи человек и посещаемость постоянно растёт. Мы создали панель лицензирования для защиты PHP скриптов от воровства и SEO панель для мониторинга наших сайтов и выбора верной стратегии их развития. Мы надеемся что то что мы создали пригодится Вам и возможно Вы поможете нам развиваться и совершенствоваться вместе с Вами.

Статистика форума

Темы
410.572
Сообщения
469.128
Пользователи
86.229
Новый пользователь
bie

Приложения форума для iOS и Android


У ркн там нет власти ;)
Приватные разговоры
Помощь Пользователи
    Вы не присоединились ни к одной комнате.