За последнюю неделю опубликовано 28 новых материалов.
Инструкция новичку Путеводитель по форуму Прокси для Telegram Показать подсказки , это бомба!

Скачать Сорвиголова / Daredevil (2003) BDRip 720p от k.e.n & MegaPeer | D, A | Режиссерская версия бесплатно через торрент

  • Поучаствуй (в качестве покупателя) в любых пяти совместных покупках (кроме завершённых и "Моментальных") и получи группу "Новичок" навсегда -> ссылка на раздел
  • Получай до 480 рублей за каждого приглашенного пользователя!
    представляем Вам очередное расширение партнерской программы, подробности описаны тут -> ссылка
  • 90% материалов доступно к скачиванию после простой регистрации!
    Если же ты хочешь скачивать материалы без требования оставлять отзывы то получи группу "Новичок", 10 способов повышения описаны тут -> ссылка
  • К сожалению количество битых ссылок растет и мы уже не можем их оперативно восстанавливать поэтому просим помощи у каждого нашего пользователя.
    С сегодняшнего дня, за каждую восстановленную ссылку мы заплатим Вам.
    Подробнее тут -> ссылка
  • Перенесем твои заслуги с другого ресурса!
    Мы понимаем как сложно прокачивать аккаунты на форумах, вроде раскачал аккаунт, а тут появляется ресурс в 100 раз круче но тоже с системой прокачки и снова качать аккаунт...
    Предлагаем вам перенести Ваши заслуги на другом подобном ресурсе к нам.
    Подробности описаны тут -> ссылка
  • Вы можете получать по 2.5% с каждой покупки и продажи на маркете! Подробности в теме Партнёрская программа
Если Вы не хотите скачивать, Вы всегда можетепосмотретьонлайн, просто нажмите кнопку ниже :

Открыть плеер

Torrent_Bot

Торрент-Бот
Бот форума
4 Окт 2016
93
155
20
Название: Сорвиголова
Оригинальное название: Daredevil
Год выхода: 2003
Жанр:боевик, триллер, фэнтези, криминал
Режиссер: Марк Стивен Джонсон / Mark Steven Johnson
В ролях:Бен Аффлек, Дженнифер Гарнер, Колин Фаррелл, Майкл Кларк Дункан, Джон Фавро, Скотт Терра, Эллен Помпео, Джо Пантольяно, Лиленд Орсер, Ленни Лофтин

О фильме: Он живёт в мире вечной ночи, но эта темнота заполнена звуками и запахами, её можно попробовать на вкус и потрогать руками. Адвокат Мэтт Мердок слеп, но остальные органы чувств у него работают, как у супермэна. Днём Мердок защищает униженных и оскорблённых в зале суда, а ночью превращается в сорвиголову в маске, восстанавливая справедливость на улицах города самыми радикальными методами.

Дополнительная информация:
Режиссерская версия фильма на 30 минут длиннее театральной. Добавлены/вырезаны/изменены некоторые сцены, выделена еще одна сюжетная линия; с полным списком отличий можно ознакомиться здесь. Смотрится как абсолютно другой фильм, более кровавый, более взрослый; театральная версия имеет возрастной рейтинг PG-13, режиссерская — R.


Страна: США
Продолжительность: 02:13:08
Перевод: Дублированный (со вставками В.Королева на непереведенные места), авторский (одноголосый, закадровый)

Качество: BDRip 720p
Контейнер: MKV
Видео: AVC, 1280x542 (2.35:1), 23.976 fps, 4 973 Kbps (0.299 bit/pixel)
Аудио #1: AC-3, 48.0 KHz, 6 ch, 448 Kbps, CBR (Russian) - дублированный (+ вставки В.Королева)
Аудио #2: AC-3, 48.0 KHz, 6 ch, 384 Kbps, CBR (Russian) - авторский В.Королёв
Аудио #3: AC-3, 48.0 KHz, 6 ch, 448 Kbps, CBR (English) - оригинал
Субтитры: Russian, English

Скриншоты:


Релиз: &

MediaInfo:
Полное имя : F:ФИЛЬМЫ 720pСорвиголова.2003 (Б.Аффлек, Д.Гарднер) Unrated.mkv
Формат : Matroska
Версия формата : Version 2
Размер файла : 5,82 Гбайт
Продолжительность : 2 ч. 13 м.
Общий поток : 6254 Кбит/сек
Дата кодирования : UTC 2018-09-17 17:34:44
Программа кодирования : mkvmerge v5.3.0 ('I could have danced') built on Feb 9 2012 10:38:07
Библиотека кодирования : libebml v1.2.3 + libmatroska v1.3.0
Attachments : poster.jpg

Видео
Идентификатор : 1
Формат : AVC
Формат/Информация : Advanced Video Codec
Профиль формата : High@L4.1
Параметр CABAC формата : Да
Параметр ReFrames формата : 11 кадров
Идентификатор кодека : V_MPEG4/ISO/AVC
Продолжительность : 2 ч. 13 м.
Битрейт : 4973 Кбит/сек
Ширина : 1280 пикселей
Высота : 542 пикселя
Соотношение сторон : 2,35:1
Режим частоты кадров : Постоянный
Частота кадров : 23,976 (24000/1001) кадра/сек
Цветовое пространство : YUV
Субдискретизация насыщенности : 4:2:0
Битовая глубина : 8 бит
Тип развёртки : Прогрессивная
Бит/(Пиксели*Кадры) : 0.299
Размер потока : 4,51 Гбайт (78%)
Библиотека кодирования : x264 core 146 r2538 121396c
Настройки программы : cabac=1 / ref=11 / deblock=1:-3:-3 / analyse=0x3:0x133 / me=umh / subme=11 / psy=1 / psy_rd=1.00:0.00 / mixed_ref=1 / me_range=32 / chroma_me=1 / trellis=2 / 8x8dct=1 / cqm=0 / deadzone=21,11 / fast_pskip=0 / chroma_qp_offset=-2 / threads=12 / lookahead_threads=2 / sliced_threads=0 / nr=0 / decimate=0 / interlaced=0 / bluray_compat=0 / constrained_intra=0 / bframes=11 / b_pyramid=2 / b_adapt=2 / b_bias=0 / direct=3 / weightb=1 / open_gop=0 / weightp=2 / keyint=240 / keyint_min=23 / scenecut=40 / intra_refresh=0 / rc=2pass / mbtree=0 / bitrate=4973 / ratetol=1.0 / qcomp=0.60 / qpmin=0 / qpmax=69 / qpstep=4 / cplxblur=20.0 / qblur=0.5 / ip_ratio=1.40 / pb_ratio=1.30 / aq=3:0.90
Язык : English
Default : Да
Forced : Нет

Аудио #1
Идентификатор : 2
Формат : AC-3
Формат/Информация : Audio Coding 3
Расширение режима : CM (complete main)
Параметр Endianness формата : Big
Идентификатор кодека : A_AC3
Продолжительность : 2 ч. 13 м.
Вид битрейта : Постоянный
Битрейт : 448 Кбит/сек
Каналы : 6 каналов
Расположение каналов : Front: L C R, Side: L R, LFE
Частота : 48,0 КГц
Частота кадров : 31,250 кадров/сек (1536 spf)
Битовая глубина : 16 бит
Метод сжатия : С потерями
Размер потока : 427 Мбайт (7%)
Заголовок : Дублированный (+вставки В.Королев)
Default : Да
Forced : Нет

Аудио #2
Идентификатор : 3
Формат : AC-3
Формат/Информация : Audio Coding 3
Расширение режима : CM (complete main)
Параметр Endianness формата : Big
Идентификатор кодека : A_AC3
Продолжительность : 2 ч. 13 м.
Вид битрейта : Постоянный
Битрейт : 384 Кбит/сек
Каналы : 6 каналов
Расположение каналов : Front: L C R, Side: L R, LFE
Частота : 48,0 КГц
Частота кадров : 31,250 кадров/сек (1536 spf)
Битовая глубина : 16 бит
Метод сжатия : С потерями
Размер потока : 366 Мбайт (6%)
Заголовок : Авторский В.Королев
Язык : Russian
Default : Нет
Forced : Нет

Аудио #3
Идентификатор : 4
Формат : AC-3
Формат/Информация : Audio Coding 3
Расширение режима : CM (complete main)
Параметр Endianness формата : Big
Идентификатор кодека : A_AC3
Продолжительность : 2 ч. 13 м.
Вид битрейта : Постоянный
Битрейт : 448 Кбит/сек
Каналы : 6 каналов
Расположение каналов : Front: L C R, Side: L R, LFE
Частота : 48,0 КГц
Частота кадров : 31,250 кадров/сек (1536 spf)
Битовая глубина : 16 бит
Метод сжатия : С потерями
Размер потока : 427 Мбайт (7%)
Заголовок : Оригинал
Язык : English
Default : Нет
Forced : Нет

Текст #1
Идентификатор : 5
Формат : UTF-8
Идентификатор кодека : S_TEXT/UTF8
Идентификатор кодека/Информация : UTF-8 Plain Text
Заголовок : forced
Язык : Russian
Default : Да
Forced : Да

Текст #2
Идентификатор : 6
Формат : UTF-8
Идентификатор кодека : S_TEXT/UTF8
Идентификатор кодека/Информация : UTF-8 Plain Text
Заголовок : full
Язык : Russian
Default : Нет
Forced : Нет

Текст #3
Идентификатор : 7
Формат : UTF-8
Идентификатор кодека : S_TEXT/UTF8
Идентификатор кодека/Информация : UTF-8 Plain Text
Заголовок : full
Язык : English
Default : Нет
Forced : Нет

Меню
00:00:00.000 : :Chapter 01
00:02:24.227 : :Chapter 02
00:05:18.568 : :Chapter 03
00:08:13.367 : :Chapter 04
00:12:18.863 : :Chapter 05
00:15:43.525 : :Chapter 06
00:20:38.070 : :Chapter 07
00:24:09.823 : :Chapter 08
00:32:05.924 : :Chapter 09
00:33:13.908 : :Chapter 10
00:37:27.453 : :Chapter 11
00:39:41.170 : :Chapter 12
00:41:37.661 : :Chapter 13
00:45:07.287 : :Chapter 14
00:47:49.825 : :Chapter 15
00:49:46.525 : :Chapter 16
00:53:11.813 : :Chapter 17
00:57:23.189 : :Chapter 18
00:59:44.998 : :Chapter 19
01:04:19.772 : :Chapter 20
01:06:27.066 : :Chapter 21
01:10:54.375 : :Chapter 22
01:18:07.099 : :Chapter 23
01:22:25.857 : :Chapter 24
01:23:59.367 : :Chapter 25
01:25:54.816 : :Chapter 26
01:28:39.731 : :Chapter 27
01:30:09.737 : :Chapter 28
01:32:22.745 : :Chapter 29
01:33:39.071 : :Chapter 30
01:36:30.618 : :Chapter 31
01:40:31.650 : :Chapter 32
01:44:53.120 : :Chapter 33
01:49:03.411 : :Chapter 34
01:50:29.581 : :Chapter 35
01:52:29.409 : :Chapter 36
01:53:37.727 : :Chapter 37
01:59:41.883 : :Chapter 38
02:00:14.457 : :Chapter 39
02:02:04.734 : :Chapter 40
02:03:32.321 : :Chapter 41
02:04:33.674 : :Chapter 42
02:05:22.515 : :Chapter 43
02:06:49.351 : :Chapter 44
02:13:07.980 : :Chapter 45
 

Вложения

  • 15,6 KB Просмотры: 1
    Личеров 0
    Сидеров 0
    Файлов 1
    Объем 5,8 GB

Привет!

Мы группа людей которые решили помочь другим в решении их проблем, а так же пользователям с поиском самых свежих и качественных инфопродуктов. За 4 с небольшим месяца мы создали этот форум на который заходят ежедневно тысячи человек и посещаемость постоянно растёт. Мы создали панель лицензирования для защиты PHP скриптов от воровства и SEO панель для мониторинга наших сайтов и выбора верной стратегии их развития. Мы надеемся что то что мы создали пригодится Вам и возможно Вы поможете нам развиваться и совершенствоваться вместе с Вами.

Статистика форума

Темы
406.550
Сообщения
464.701
Пользователи
83.402
Новый пользователь
бобёр1234

Приложения форума для iOS и Android


У ркн там нет власти ;)
Приватные разговоры
Помощь Пользователи
    Вы не присоединились ни к одной комнате.