За последнюю неделю опубликовано 34 новых материалов.
Инструкция новичку Путеводитель по форуму Прокси для Telegram Показать подсказки , это бомба!

Скачать Сорокалетний девственник / The 40-Year-Old Virgin (2005) BDRip-AVC от SuperMin | D | Расширенная версия бесплатно через торрент

  • Поучаствуй (в качестве покупателя) в любых пяти совместных покупках (кроме завершённых и "Моментальных") и получи группу "Новичок" навсегда -> ссылка на раздел
  • Получай до 480 рублей за каждого приглашенного пользователя!
    представляем Вам очередное расширение партнерской программы, подробности описаны тут -> ссылка
  • 90% материалов доступно к скачиванию после простой регистрации!
    Если же ты хочешь скачивать материалы без требования оставлять отзывы то получи группу "Новичок", 10 способов повышения описаны тут -> ссылка
  • К сожалению количество битых ссылок растет и мы уже не можем их оперативно восстанавливать поэтому просим помощи у каждого нашего пользователя.
    С сегодняшнего дня, за каждую восстановленную ссылку мы заплатим Вам.
    Подробнее тут -> ссылка
  • Перенесем твои заслуги с другого ресурса!
    Мы понимаем как сложно прокачивать аккаунты на форумах, вроде раскачал аккаунт, а тут появляется ресурс в 100 раз круче но тоже с системой прокачки и снова качать аккаунт...
    Предлагаем вам перенести Ваши заслуги на другом подобном ресурсе к нам.
    Подробности описаны тут -> ссылка
  • Вы можете получать по 2.5% с каждой покупки и продажи на маркете! Подробности в теме Партнёрская программа
Если Вы не хотите скачивать, Вы всегда можетепосмотретьонлайн, просто нажмите кнопку ниже :

Открыть плеер

Torrent_Bot

Торрент-Бот
Бот форума
4 Окт 2016
93
160
20



Информация о фильме
Название: Сорокалетний девственник
Оригинальное название: The 40-Year-Old Virgin
Год выхода: 2005
Жанр: Комедия
Режиссер: Джадд Апатоу
В ролях: Стив Кэрелл, Кэтрин Кинер, Пол Радд, Романи Малко, Сет Рожен, Элизабет Бэнкс, Лесли Мэнн, Джейн Линч


Его зовут Энди Ститцер, он работает консультантом в магазине электроники и действительно девственнен, как нетронутые упаковки коллекционных солдатиков на полках его холостяцкого гнездышка. За свои сорок лет Энди ни разу не занимался сексом и не водил машину (еще неизвестно, что хуже), зато сумел собрать обширнейшую коллекцию комиксов и научился здорово делать сэндвичи с яйцом и салатом. Коллеги подозревают в нем серийного убийцу, но как-то раз, во время болтовни за игрой в покер, правда об Энди (еще более ужасная, чем их самые смелые догадки) выходит наружу. И с этим нужно что-то делать. Так что товарищи Энди, сами страшные бабники, бросают робкого парня в жаркий круговорот клубов экспресс-знакомств и баров с дурной репутацией в надежде, что вид вываливающихся из декольте грудей и пьяные поцелуи собутыльниц сделают свое дело.




Страна: США
Студия: Universal Pictures
Продолжительность: 02:12:27
Перевод: Дубляж

Файл
Кодек: H.264
Качество: BDRip-AVC от SuperMin
Видео: 1024x552 (1.85:1), 2221 kbps, 23.976 fps
Звук: Русский (AC-3, 6ch, 448 kbps)
Субтитры: Русские(форс., полные)

MI
General
Unique ID : 231104031796126072959640626909098959155 (0xADDD047B9111F31A22732EA2A1026133)
Complete name : F:Сорокалетний девственник.mkv
Format : Matroska
Format version : Version 4
File size : 2.47 GiB
Duration : 2 h 12 min
Overall bit rate : 2 671 kb/s
Movie name : Сорокалетний девственник / The 40-Year-Old Virgin (2005) (Расширенная) - #LORDKILL#
Encoded date : UTC 2019-06-06 12:45:00
Writing application : mkvmerge v21.0.0 ('Tardigrades Will Inherit The Earth') 64-bit
Writing library : libebml v1.3.5 + libmatroska v1.4.8
Attachments : 4651012916c474ad8897bcf91bb6d4d9.jpg

Video
ID : 1
Format : AVC
Format/Info : Advanced Video Codec
Format profile : [email protected]
Format settings : CABAC / 11 Ref Frames
Format settings, CABAC : Yes
Format settings, Reference : 11 frames
Codec ID : V_MPEG4/ISO/AVC
Duration : 2 h 12 min
Bit rate : 2 221 kb/s
Width : 1 024 pixels
Height : 552 pixels
Display aspect ratio : 1.85:1
Frame rate mode : Constant
Frame rate : 23.976 (24000/1001) FPS
Color space : YUV
Chroma subsampling : 4:2:0
Bit depth : 8 bits
Scan type : Progressive
Bits/(Pixel*Frame) : 0.164
Stream size : 2.05 GiB (83%)
Writing library : x264 core 146 r2538 121396c
Encoding settings : cabac=1 / ref=11 / deblock=1:-2:-2 / analyse=0x3:0x113 / me=umh / subme=11 / psy=1 / psy_rd=1.00:0.15 / mixed_ref=1 / me_range=32 / chroma_me=1 / trellis=2 / 8x8dct=1 / cqm=0 / deadzone=21,11 / fast_pskip=0 / chroma_qp_offset=-3 / threads=12 / lookahead_threads=2 / sliced_threads=0 / nr=0 / decimate=1 / interlaced=0 / bluray_compat=0 / constrained_intra=0 / bframes=7 / b_pyramid=2 / b_adapt=2 / b_bias=0 / direct=1 / weightb=1 / open_gop=0 / weightp=2 / keyint=240 / keyint_min=23 / scenecut=40 / intra_refresh=0 / rc=crf / mbtree=0 / crf=19.0 / qcomp=0.60 / qpmin=0 / qpmax=69 / qpstep=4 / ip_ratio=1.40 / pb_ratio=1.30 / aq=1:1.00
Language : English
Default : Yes
Forced : No

Audio
ID : 2
Format : AC-3
Format/Info : Audio Coding 3
Commercial name : Dolby Digital
Codec ID : A_AC3
Duration : 2 h 12 min
Bit rate mode : Constant
Bit rate : 448 kb/s
Channel(s) : 6 channels
Channel layout : L R C LFE Ls Rs
Sampling rate : 48.0 kHz
Frame rate : 31.250 FPS (1536 SPF)
Bit depth : 16 bits
Compression mode : Lossy
Stream size : 424 MiB (17%)
Title : Дубляж
Language : Russian
Service kind : Complete Main
Default : Yes
Forced : No

Text #1
ID : 3
Format : UTF-8
Codec ID : S_TEXT/UTF8
Codec ID/Info : UTF-8 Plain Text
Duration : 2 h 3 min
Bit rate : 1 b/s
Count of elements : 21
Stream size : 1.03 KiB (0%)
Title : Форсированные
Language : Russian
Default : No
Forced : No

Text #2
ID : 4
Format : UTF-8
Codec ID : S_TEXT/UTF8
Codec ID/Info : UTF-8 Plain Text
Duration : 2 h 6 min
Bit rate : 152 b/s
Count of elements : 2471
Stream size : 141 KiB (0%)
Title : Полные
Language : Russian
Default : No
Forced : No

Menu
00:00:00.000 : en:Morning Wood
00:08:44.149 : en:A Bag of Sand
00:14:33.956 : en:It Just Never Happened
00:22:53.706 : en:Hit On Drunk Chicks
00:32:08.844 : en:Andy Pulls a Number
00:38:18.129 : en:Waxing
00:43:58.177 : en:planting Seeds
00:48:41.585 : en:Box O' Porn
00:54:45.449 : en:Speed Dating
01:05:01.064 : en:A Data With Trish
01:10:45.158 : en:Teach Me
01:17:19.510 : en:paula Offers Herself
01:21:28.092 : en:No Sex For 20 Dates
01:27:55.520 : en:Jay's Tears
01:35:02.655 : en:Outercourse
01:41:57.528 : en:Andy's 20th Date
01:48:06.480 : en:Beth In the Bath
01:58:59.966 : en:Heat of the Moment
02:03:47.670 : en:Age of Aquarius
02:08:55.853 : en:End Titles
Скриншоты
 

Вложения

  • 13,3 KB Просмотры: 1
    Личеров 0
    Сидеров 0
    Файлов 1
    Объем 2,5 GB

Привет!

Мы группа людей которые решили помочь другим в решении их проблем, а так же пользователям с поиском самых свежих и качественных инфопродуктов. За 4 с небольшим месяца мы создали этот форум на который заходят ежедневно тысячи человек и посещаемость постоянно растёт. Мы создали панель лицензирования для защиты PHP скриптов от воровства и SEO панель для мониторинга наших сайтов и выбора верной стратегии их развития. Мы надеемся что то что мы создали пригодится Вам и возможно Вы поможете нам развиваться и совершенствоваться вместе с Вами.

Статистика форума

Темы
406.600
Сообщения
464.997
Пользователи
84.280
Новый пользователь
gogan67

Приложения форума для iOS и Android


У ркн там нет власти ;)
Приватные разговоры
Помощь Пользователи
    Вы не присоединились ни к одной комнате.