За последнюю неделю опубликовано 35 новых материалов.
Инструкция новичку Путеводитель по форуму Прокси для Telegram Показать подсказки , это бомба!

Скачать Сообщество / The Row (2018) BDRemux 1080p от ExKinoRay | HDRezka Studio бесплатно через торрент

  • Поучаствуй (в качестве покупателя) в любых пяти совместных покупках (кроме завершённых и "Моментальных") и получи группу "Новичок" навсегда -> ссылка на раздел
  • Получай до 480 рублей за каждого приглашенного пользователя!
    представляем Вам очередное расширение партнерской программы, подробности описаны тут -> ссылка
  • 90% материалов доступно к скачиванию после простой регистрации!
    Если же ты хочешь скачивать материалы без требования оставлять отзывы то получи группу "Новичок", 10 способов повышения описаны тут -> ссылка
  • К сожалению количество битых ссылок растет и мы уже не можем их оперативно восстанавливать поэтому просим помощи у каждого нашего пользователя.
    С сегодняшнего дня, за каждую восстановленную ссылку мы заплатим Вам.
    Подробнее тут -> ссылка
  • Перенесем твои заслуги с другого ресурса!
    Мы понимаем как сложно прокачивать аккаунты на форумах, вроде раскачал аккаунт, а тут появляется ресурс в 100 раз круче но тоже с системой прокачки и снова качать аккаунт...
    Предлагаем вам перенести Ваши заслуги на другом подобном ресурсе к нам.
    Подробности описаны тут -> ссылка
  • Вы можете получать по 2.5% с каждой покупки и продажи на маркете! Подробности в теме Партнёрская программа
Если Вы не хотите скачивать, Вы всегда можетепосмотретьонлайн, просто нажмите кнопку ниже :

Открыть плеер

Torrent_Bot

Торрент-Бот
Бот форума
4 Окт 2016
93
155
20

Информация о фильме
Название: Сообщество
Оригинальное название: The Row
Год выхода: 2018
Жанр: Триллер
Режиссер: Мэтти Бекерман
В ролях: Лорин Кент, Колин Эглсфилд, Дилан Спрейберри, Миа Фрэмптон, Сара МакДэниел, Рэнди Кутюр, Лекси Аткинс, Малия Ричардсон, Ши Бакнер, Река Рене

О фильме:
Юная девушка Райли – дочь известного детектива, который чрезмерно опекает ее. Поступление в институт становится той отдушиной в жизни девушки, которой ей так давно не хватало. Теперь она чувствует себя взрослой и свободной. Новые ощущения, романтические моменты, любовные развлечения просто дурманят разум Райли. Основная цель новоиспеченной студентки – вступление в самое крутое сестринское сообщество, где правят особые правила и традиции. Оказаться среди девчонок закрытого клуба очень сложно, они устраивают первокурсницам жесткий отбор, где побеждает сильнейший. Начало студенческой жизни для Райли идет лучшим образом, до тех пор, пока череду развлечений не накрывает волной жестоких преступлений. В университете объявился чудовищный убийца, атакам которого подверглось множество красивых девушек. Маньяк безжалостно потрошит своих жертв, после чего делает из них настоящих кукол. Яркий наряд и вызывающий макияж нагоняет страх даже на сотрудников полиции, которые ведут это расследование. Отец Райли очень переживает за нее и просит держаться подальше от вечеринок, незнакомых парней и сестринского сообщества. Но с каждым днем психопат подбирается все ближе и ближе.



Выпущено: Канада, США, Emmett/Furla/Oasis Film
Продолжительность: 01:25:42
Перевод: Профессиональный многоголосый [HDrezka Studio]

Файл
Кодек: x264
Качество: BDRemux 1080p
Видео: MPEG-4 AVC, 26.1 Mбит/с, 1920x1080
Звук №1: Русский | AC3, 2 ch, 192 Кбит/с
Звук №2: Английский | DTS, 6 ch, 1510 Кбит/с
Субтитры: Английские


Инфо-файл
Формат : Matroska
Версия формата : Version 2
Размер файла : 17,0 Гбайт
Продолжительность : 1 ч. 25 м.
Режим общего битрейта : Переменный
Общий поток : 28,4 Мбит/сек
Название фильма : The.Row.2018.1080p.BluRay.REMUX.zzZGVvv
Дата кодирования : UTC 2018-09-21 06:15:32
Программа кодирования : mkvmerge v5.8.0 ('No Sleep / Pillow') built on Sep 2 2012 15:37:04
Библиотека кодирования : libebml v1.2.3 + libmatroska v1.3.0
Attachements : cover.jpg

Видео
Идентификатор : 1
Формат : AVC
Формат/Информация : Advanced Video Codec
Профиль формата : High@L4.1
Параметр CABAC формата : Да
Параметр ReFrames формата : 4 кадра
Идентификатор кодека : V_MPEG4/ISO/AVC
Продолжительность : 1 ч. 25 м.
Вид битрейта : Переменный
Битрейт : 26,1 Мбит/сек
Максимальный битрейт : 37,0 Мбит/сек
Ширина : 1920 пикселей
Высота : 1080 пикселей
Соотношение сторон : 16:9
Режим частоты кадров : Постоянный
Частота кадров : 23,976 кадра/сек
Цветовое пространство : YUV
Субдискретизация насыщенности : 4:2:0
Битовая глубина : 8 бит
Тип развёртки : Прогрессивная
Бит/(Пиксели*Кадры) : 0.525
Размер потока : 15,6 Гбайт (92%)
Язык : English
Default : Да
Forced : Нет

Аудио #1
Идентификатор : 2
Формат : AC-3
Формат/Информация : Audio Coding 3
Расширение режима : CM (complete main)
Параметр Endianness формата : Big
Идентификатор кодека : A_AC3
Продолжительность : 1 ч. 25 м.
Вид битрейта : Постоянный
Битрейт : 192 Кбит/сек
Каналы : 2 канала
Расположение каналов : Front: L R
Частота : 48,0 КГц
Метод сжатия : С потерями
Размер потока : 118 Мбайт (1%)
Заголовок : HDRezka Studio
Язык : Russian
Default : Да
Forced : Нет

Аудио #2
Идентификатор : 3
Формат : DTS
Формат/Информация : Digital Theater Systems
Режим : 16
Параметр Endianness формата : Big
Идентификатор кодека : A_DTS
Продолжительность : 1 ч. 25 м.
Вид битрейта : Постоянный
Битрейт : 1509 Кбит/сек
Каналы : 6 каналов
Расположение каналов : Front: L C R, Side: L R, LFE
Частота : 48,0 КГц
Битовая глубина : 24 бит
Метод сжатия : С потерями
Размер потока : 925 Мбайт (5%)
Язык : English
Default : Нет
Forced : Нет

Текст
Идентификатор : 4
Формат : UTF-8
Идентификатор кодека : S_TEXT/UTF8
Идентификатор кодека/Информация : UTF-8 Plain Text
Язык : English
Default : Нет
Forced : Нет

Меню
00:00:00.000 : en:Chapter 01
00:04:48.087 : en:Chapter 02
00:09:50.764 : en:Chapter 03
00:14:04.142 : en:Chapter 04
00:20:08.673 : en:Chapter 05
00:24:02.574 : en:Chapter 06
00:30:14.695 : en:Chapter 07
00:36:18.893 : en:Chapter 08
00:40:36.942 : en:Chapter 09
00:45:32.654 : en:Chapter 10
00:51:37.102 : en:Chapter 11
00:54:29.857 : en:Chapter 12
01:00:56.661 : en:Chapter 13
01:05:10.247 : en:Chapter 14
01:10:29.233 : en:Chapter 15
01:17:20.852 : en:Chapter 16
Релиз от:
 

Вложения

  • 86 KB Просмотры: 1
    Личеров 0
    Сидеров 0
    Файлов 1
    Объем 17 GB

Привет!

Мы группа людей которые решили помочь другим в решении их проблем, а так же пользователям с поиском самых свежих и качественных инфопродуктов. За 4 с небольшим месяца мы создали этот форум на который заходят ежедневно тысячи человек и посещаемость постоянно растёт. Мы создали панель лицензирования для защиты PHP скриптов от воровства и SEO панель для мониторинга наших сайтов и выбора верной стратегии их развития. Мы надеемся что то что мы создали пригодится Вам и возможно Вы поможете нам развиваться и совершенствоваться вместе с Вами.

Статистика форума

Темы
406.544
Сообщения
464.663
Пользователи
83.273
Новый пользователь
avh

Приложения форума для iOS и Android


У ркн там нет власти ;)
Приватные разговоры
Помощь Пользователи
    Вы не присоединились ни к одной комнате.