За последнюю неделю опубликовано 63 новых материалов.
Инструкция новичку Путеводитель по форуму Прокси для Telegram Показать подсказки , это бомба!

Скачать Соник в кино / Sonic the Hedgehog (2020) UHD Blu-Ray EUR 2160p | 4K | HDR | Dolby Vision | Лицензия бесплатно через торрент

  • Поучаствуй (в качестве покупателя) в любых пяти совместных покупках (кроме завершённых и "Моментальных") и получи группу "Новичок" навсегда -> ссылка на раздел
  • Получай до 480 рублей за каждого приглашенного пользователя!
    представляем Вам очередное расширение партнерской программы, подробности описаны тут -> ссылка
  • 90% материалов доступно к скачиванию после простой регистрации!
    Если же ты хочешь скачивать материалы без требования оставлять отзывы то получи группу "Новичок", 10 способов повышения описаны тут -> ссылка
  • К сожалению количество битых ссылок растет и мы уже не можем их оперативно восстанавливать поэтому просим помощи у каждого нашего пользователя.
    С сегодняшнего дня, за каждую восстановленную ссылку мы заплатим Вам.
    Подробнее тут -> ссылка
  • Перенесем твои заслуги с другого ресурса!
    Мы понимаем как сложно прокачивать аккаунты на форумах, вроде раскачал аккаунт, а тут появляется ресурс в 100 раз круче но тоже с системой прокачки и снова качать аккаунт...
    Предлагаем вам перенести Ваши заслуги на другом подобном ресурсе к нам.
    Подробности описаны тут -> ссылка
  • Вы можете получать по 2.5% с каждой покупки и продажи на маркете! Подробности в теме Партнёрская программа
Если Вы не хотите скачивать, Вы всегда можетепосмотретьонлайн, просто нажмите кнопку ниже :

Открыть плеер

Torrent_Bot

Торрент-Бот
Бот форума
4 Окт 2016
92
160
20


Информация о фильме
Название: Соник в кино
Оригинальное название: Sonic the Hedgehog
Год выхода: 2020
Жанр: Фантастика, фэнтези, боевик, приключения, комедия, семейный
Режиссер: Джефф Фаулер
В ролях: Джеймс Марсден, Бен Шварц, Наташа Ротуэлл, Тика Самптер, Нил МакДонаф, Адам Палли, Джим Керри, Майкл Хоган, Ли Мадждуб, Том Батлер, Фрэнк Ч. Тёрнер



О фильме: Отвязный ярко-синий ежик Соник вместе с новообретенным - человеческим - лучшим другом Томом Вачовски он знакомится со сложностями жизни на Земле и противостоит злодейскому доктору Роботнику, который хочет пленить Соника и использовать его безграничные суперсилы для завоевания мирового господства.

Страна: США, Япония, Канада
Студия: Paramount Pictures, Sega, Original Film
Продолжительность: 01:38:53
Перевод: Дублированный | Лицензия


Качество: Blu-Ray 2160p
Видео: 3840x2160 at 23.976 fps, MPEG-H HEVC HDR, Dolby Vision Video, 59500 kbps avg
Аудио: Русский, немецкий, испанский, французский, итальянский, японский, тайский (AC3, 6 ch, 640 Кбит/с), английский (TrueHD, 8 ch, 4434 Кбит/с), (AC3, 2 ch, 224 Кбит/с)
Субтитры: Русские, английские, малазийские, китайские, чешские, датские, немецкие, греческие, испанские, французские, итальянские, японские, корейские, нидерландские, норвежские, румынские, финские, шведские, тайские



BDInfo
Disc Title: Sonic The Hedgehog
Disc Label: Sonic.the.Hedgehog.2020.UHD.BluRay.2160p.HEVC.TrueHD.Atmos.7.1-BeyondHD
Disc Size: 63,100,477,972 bytes
Protection: AACS2
Extras: Ultra HD, BD-Java
BDInfo: 0.7.5.5

Notes:

BDINFO HOME:
Cinema Squid (old)
http://www.cinemasquid.com/blu-ray/tools/bdinfo
UniqProject GitHub (new)
https://github.com/UniqProject/BDInfo

INCLUDES FORUMS REPORT FOR:
AVS Forum Blu-ray Audio and Video Specifications Thread
http://www.avsforum.com/avs-vb/showthread.php?t=1155731


********************
PLAYLIST: 00222.MPLS
********************


Код:
 Total Video 
 Title Codec Length Movie Size Disc Size Bitrate Bitrate Main Audio Track Secondary Audio Track
 ----- ------ ------- -------------- -------------- ------- ------- ------------------ ---------------------
 00222.MPLS HEVC 1:38:52 61,443,796,992 63,100,477,972 82.85 59.53 Dolby Atmos 7.1 5074Kbps (48kHz/24-bit) DD AC3 5.1 640Kbps
Код:
 DISC INFO:

 Disc Title: Sonic The Hedgehog
 Disc Label: Sonic.the.Hedgehog.2020.UHD.BluRay.2160p.HEVC.TrueHD.Atmos.7.1-BeyondHD
 Disc Size: 63,100,477,972 bytes
 Protection: AACS2
 Extras: Ultra HD, BD-Java
 BDInfo: 0.7.5.5

 PLAYLIST REPORT:

 Name: 00222.MPLS
 Length: 1:38:52.885 (h:m:s.ms)
 Size: 61,443,796,992 bytes
 Total Bitrate: 82.85 Mbps

 (*) Indicates included stream hidden by this playlist.

 VIDEO:

 Codec Bitrate Deion 
 ----- ------- ----------- 
 MPEG-H HEVC Video 59530 kbps 2160p / 23.976 fps / 16:9 / Main 10 @ Level 5.1 @ High / 10 bits / HDR10 / BT.2020
 * MPEG-H HEVC Video 4961 kbps 1080p / 23.976 fps / 16:9 / Main 10 @ Level 5.1 @ High / 10 bits / Dolby Vision / BT.2020

 AUDIO:

 Codec Language Bitrate Deion 
 ----- -------- ------- ----------- 
 Dolby TrueHD/Atmos Audio English 5074 kbps 7.1 / 48 kHz / 4434 kbps / 24-bit (AC3 Embedded: 5.1-EX / 48 kHz / 640 kbps / DN -27dB)
 Dolby Digital Audio English 640 kbps 5.1 / 48 kHz / 640 kbps / DN -27dB
 Dolby Digital Audio German 640 kbps 5.1 / 48 kHz / 640 kbps / DN -27dB
 Dolby Digital Audio Spanish 640 kbps 5.1 / 48 kHz / 640 kbps / DN -27dB
 Dolby Digital Audio Spanish 640 kbps 5.1 / 48 kHz / 640 kbps / DN -27dB
 Dolby Digital Audio French 640 kbps 5.1 / 48 kHz / 640 kbps / DN -27dB
 Dolby Digital Audio French 640 kbps 5.1 / 48 kHz / 640 kbps / DN -27dB
 Dolby Digital Audio Italian 640 kbps 5.1 / 48 kHz / 640 kbps / DN -27dB
 Dolby Digital Audio Japanese 640 kbps 5.1 / 48 kHz / 640 kbps / DN -27dB
 Dolby Digital Audio Russian 640 kbps 5.1 / 48 kHz / 640 kbps / DN -27dB
 Dolby Digital Audio Thai 640 kbps 5.1 / 48 kHz / 640 kbps / DN -27dB
 Dolby Digital Audio English 224 kbps 2.0 / 48 kHz / 224 kbps / DN -31dB

 SUBTITLES:

 Codec Language Bitrate Deion 
 ----- -------- ------- ----------- 
 Presentation Graphics English 41.799 kbps 
 Presentation Graphics English 48.554 kbps 
 Presentation Graphics Malay 47.334 kbps 
 Presentation Graphics Chinese 31.574 kbps 
 Presentation Graphics Czech 35.902 kbps 
 Presentation Graphics Danish 35.543 kbps 
 Presentation Graphics German 41.200 kbps 
 Presentation Graphics Greek 40.366 kbps 
 Presentation Graphics Spanish 38.096 kbps 
 Presentation Graphics Spanish 40.221 kbps 
 Presentation Graphics French 32.494 kbps 
 Presentation Graphics French 43.527 kbps 
 Presentation Graphics Italian 38.741 kbps 
 Presentation Graphics Japanese 24.549 kbps 
 Presentation Graphics Korean 23.326 kbps 
 Presentation Graphics Chinese 29.592 kbps 
 Presentation Graphics Dutch 34.042 kbps 
 Presentation Graphics Norwegian 34.025 kbps 
 Presentation Graphics Russian 37.744 kbps 
 Presentation Graphics Romanian 36.749 kbps 
 Presentation Graphics Finnish 36.299 kbps 
 Presentation Graphics Swedish 35.638 kbps 
 Presentation Graphics Thai 33.093 kbps 
 Presentation Graphics Turkish 42.132 kbps 
 Presentation Graphics English 79.966 kbps 
 Presentation Graphics German 66.305 kbps 
 Presentation Graphics Spanish 70.934 kbps 
 Presentation Graphics Spanish 67.051 kbps 
 Presentation Graphics French 65.985 kbps 
 Presentation Graphics French 77.917 kbps 
 Presentation Graphics Italian 64.708 kbps 
 Presentation Graphics Japanese 44.620 kbps 

 FILES:

 Name Time In Length Size Total Bitrate 
 ---- ------- ------ ---- ------------- 
 00003.M2TS 0:00:00.000 1:38:52.885 61,443,796,992 82,852 

 CHAPTERS:

 Number Time In Length Avg Video Rate Max 1-Sec Rate Max 1-Sec Time Max 5-Sec Rate Max 5-Sec Time Max 10Sec Rate Max 10Sec Time Avg Frame Size Max Frame Size Max Frame Time 
 ------ ------- ------ -------------- -------------- -------------- -------------- -------------- -------------- -------------- -------------- -------------- -------------- 
 1 0:00:00.000 0:03:51.856 55,526 kbps 114,895 kbps 00:00:32.824 83,574 kbps 00:00:29.237 77,354 kbps 00:00:24.024 0 bytes 1,322,503 bytes 00:00:33.742 
 2 0:03:51.856 0:05:41.132 63,008 kbps 90,228 kbps 00:04:53.710 78,310 kbps 00:04:27.350 75,416 kbps 00:04:22.845 0 bytes 1,430,918 bytes 00:09:04.794 
 3 0:09:32.989 0:03:12.984 67,832 kbps 99,377 kbps 00:10:01.142 78,048 kbps 00:11:46.163 76,694 kbps 00:11:46.205 0 bytes 927,138 bytes 00:11:52.086 
 4 0:12:45.973 0:05:23.448 57,767 kbps 87,459 kbps 00:14:39.753 74,925 kbps 00:14:26.991 72,973 kbps 00:14:21.986 0 bytes 1,167,199 bytes 00:15:01.400 
 5 0:18:09.421 0:04:10.917 64,964 kbps 99,993 kbps 00:20:27.017 78,118 kbps 00:19:34.673 73,689 kbps 00:19:34.256 0 bytes 1,424,048 bytes 00:21:09.101 
 6 0:22:20.339 0:05:13.354 63,548 kbps 97,079 kbps 00:23:35.705 80,590 kbps 00:23:35.705 72,552 kbps 00:23:31.410 0 bytes 1,141,072 bytes 00:22:27.387 
 7 0:27:33.693 0:07:35.621 64,939 kbps 96,827 kbps 00:28:35.505 78,510 kbps 00:28:54.899 74,210 kbps 00:28:52.522 0 bytes 1,334,199 bytes 00:27:57.342 
 8 0:35:09.315 0:06:28.012 63,850 kbps 100,748 kbps 00:37:51.185 81,322 kbps 00:38:06.575 74,968 kbps 00:37:59.402 0 bytes 1,111,093 bytes 00:37:26.494 
 9 0:41:37.328 0:09:47.295 63,800 kbps 93,739 kbps 00:45:58.297 82,742 kbps 00:48:06.049 76,350 kbps 00:48:06.008 0 bytes 1,132,527 bytes 00:44:10.022 
 10 0:51:24.623 0:09:40.204 63,625 kbps 87,713 kbps 00:54:12.374 74,655 kbps 00:56:59.707 71,613 kbps 00:51:30.337 0 bytes 1,227,015 bytes 01:01:04.827 
 11 1:01:04.827 0:03:33.379 64,482 kbps 87,966 kbps 01:03:47.949 83,236 kbps 01:04:07.635 76,718 kbps 01:03:48.074 0 bytes 1,297,816 bytes 01:01:24.055 
 12 1:04:38.207 0:05:42.133 63,597 kbps 78,593 kbps 01:08:44.161 72,449 kbps 01:08:41.033 69,663 kbps 01:09:49.351 0 bytes 897,402 bytes 01:08:37.029 
 13 1:10:20.341 0:08:33.679 55,255 kbps 85,939 kbps 01:17:54.586 73,596 kbps 01:15:13.133 67,433 kbps 01:18:44.010 0 bytes 1,463,490 bytes 01:16:13.277 
 14 1:18:54.020 0:06:44.695 59,430 kbps 85,286 kbps 01:21:44.190 72,618 kbps 01:24:29.564 68,366 kbps 01:24:24.684 0 bytes 1,388,489 bytes 01:20:39.459 
 15 1:25:38.716 0:04:48.579 63,493 kbps 101,018 kbps 01:29:12.055 77,835 kbps 01:29:12.055 74,931 kbps 01:29:12.055 0 bytes 1,247,931 bytes 01:30:10.738 
 16 1:30:27.296 0:08:25.588 31,255 kbps 106,908 kbps 01:31:49.629 82,459 kbps 01:32:03.935 77,003 kbps 01:32:03.935 0 bytes 1,469,552 bytes 01:30:46.732 

 STREAM DIAGNOSTICS:

 File PID Type Codec Language Seconds Bitrate Bytes Packets 
 ---- --- ---- ----- -------- -------------- -------------- ------------- ----- 
 00003.M2TS 4113 (0x1011) 0x24 HEVC 5932.760 59,531 44,147,717,150 240,016,255 
 00003.M2TS 4117 (0x1015) 0x24 HEVC 5932.760 4,961 3,678,810,392 20,076,650 
 00003.M2TS 4352 (0x1100) 0x83 Atmos eng (English) 5932.760 5,074 3,762,645,270 24,831,078 
 00003.M2TS 4353 (0x1101) 0x81 AC3 eng (English) 5932.760 640 474,631,680 2,781,045 
 00003.M2TS 4354 (0x1102) 0x81 AC3 deu (German) 5932.760 640 474,631,680 2,781,045 
 00003.M2TS 4355 (0x1103) 0x81 AC3 spa (Spanish) 5932.760 640 474,631,680 2,781,045 
 00003.M2TS 4356 (0x1104) 0x81 AC3 spa (Spanish) 5932.760 640 474,631,680 2,781,045 
 00003.M2TS 4357 (0x1105) 0x81 AC3 fra (French) 5932.760 640 474,631,680 2,781,045 
 00003.M2TS 4358 (0x1106) 0x81 AC3 fra (French) 5932.760 640 474,631,680 2,781,045 
 00003.M2TS 4359 (0x1107) 0x81 AC3 ita (Italian) 5932.760 640 474,631,680 2,781,045 
 00003.M2TS 4360 (0x1108) 0x81 AC3 jpn (Japanese) 5932.760 640 474,631,680 2,781,045 
 00003.M2TS 4361 (0x1109) 0x81 AC3 rus (Russian) 5932.760 640 474,631,680 2,781,045 
 00003.M2TS 4362 (0x110A) 0x81 AC3 tha (Thai) 5932.760 640 474,631,680 2,781,045 
 00003.M2TS 4363 (0x110B) 0x81 AC3 eng (English) 5932.760 224 166,121,088 927,015 
 00003.M2TS 4768 (0x12A0) 0x90 PGS eng (English) 5932.760 42 30,998,876 177,083 
 00003.M2TS 4769 (0x12A1) 0x90 PGS eng (English) 5932.760 49 36,008,063 206,403 
 00003.M2TS 4770 (0x12A2) 0x90 PGS msa (Malay) 5932.760 47 35,103,405 199,523 
 00003.M2TS 4771 (0x12A3) 0x90 PGS zho (Chinese) 5932.760 32 23,415,441 135,888 
 00003.M2TS 4772 (0x12A4) 0x90 PGS ces (Czech) 5932.760 36 26,625,445 153,189 
 00003.M2TS 4773 (0x12A5) 0x90 PGS dan (Danish) 5932.760 36 26,358,928 151,685 
 00003.M2TS 4774 (0x12A6) 0x90 PGS deu (German) 5932.760 41 30,554,152 174,412 
 00003.M2TS 4775 (0x12A7) 0x90 PGS ell (Greek) 5932.760 40 29,935,637 170,256 
 00003.M2TS 4776 (0x12A8) 0x90 PGS spa (Spanish) 5932.760 38 28,252,482 162,024 
 00003.M2TS 4777 (0x12A9) 0x90 PGS spa (Spanish) 5932.760 40 29,828,652 170,885 
 00003.M2TS 4778 (0x12AA) 0x90 PGS fra (French) 5932.760 32 24,098,139 139,255 
 00003.M2TS 4779 (0x12AB) 0x90 PGS fra (French) 5932.760 44 32,280,282 184,115 
 00003.M2TS 4780 (0x12AC) 0x90 PGS ita (Italian) 5932.760 39 28,730,403 164,761 
 00003.M2TS 4781 (0x12AD) 0x90 PGS jpn (Japanese) 5932.760 25 18,205,885 106,638 
 00003.M2TS 4782 (0x12AE) 0x90 PGS kor (Korean) 5932.760 23 17,298,869 102,941 
 00003.M2TS 4783 (0x12AF) 0x90 PGS zho (Chinese) 5932.760 30 21,945,619 128,021 
 00003.M2TS 4784 (0x12B0) 0x90 PGS nld (Dutch) 5932.760 34 25,246,156 145,464 
 00003.M2TS 4785 (0x12B1) 0x90 PGS nor (Norwegian) 5932.760 34 25,233,536 145,832 
 00003.M2TS 4786 (0x12B2) 0x90 PGS rus (Russian) 5932.760 38 27,991,129 160,871 
 00003.M2TS 4787 (0x12B3) 0x90 PGS ron (Romanian) 5932.760 37 27,253,763 156,698 
 00003.M2TS 4788 (0x12B4) 0x90 PGS fin (Finnish) 5932.760 36 26,919,453 155,052 
 00003.M2TS 4789 (0x12B5) 0x90 PGS swe (Swedish) 5932.760 36 26,429,839 152,273 
 00003.M2TS 4790 (0x12B6) 0x90 PGS tha (Thai) 5932.760 33 24,542,340 142,093 
 00003.M2TS 4791 (0x12B7) 0x90 PGS tur (Turkish) 5932.760 42 31,245,821 178,493 
 00003.M2TS 4792 (0x12B8) 0x90 PGS eng (English) 5932.760 80 59,303,337 335,750 
 00003.M2TS 4793 (0x12B9) 0x90 PGS deu (German) 5932.760 66 49,172,318 280,296 
 00003.M2TS 4794 (0x12BA) 0x90 PGS spa (Spanish) 5932.760 71 52,605,122 299,079 
 00003.M2TS 4795 (0x12BB) 0x90 PGS spa (Spanish) 5932.760 67 49,726,026 283,644 
 00003.M2TS 4796 (0x12BC) 0x90 PGS fra (French) 5932.760 66 48,935,271 279,194 
 00003.M2TS 4797 (0x12BD) 0x90 PGS fra (French) 5932.760 78 57,784,276 327,365 
 00003.M2TS 4798 (0x12BE) 0x90 PGS ita (Italian) 5932.760 65 47,987,996 274,169 
 00003.M2TS 4799 (0x12BF) 0x90 PGS jpn (Japanese) 5932.760 45 33,090,873 190,339

QUICK SUMMARY:

Disc Title: Sonic The Hedgehog
Disc Label: Sonic.the.Hedgehog.2020.UHD.BluRay.2160p.HEVC.TrueHD.Atmos.7.1-BeyondHD
Disc Size: 63,100,477,972 bytes
Protection: AACS2
Playlist: 00222.MPLS
Size: 61,443,796,992 bytes
Length: 1:38:52.885
Total Bitrate: 82.85 Mbps
Video: MPEG-H HEVC Video / 59530 kbps / 2160p / 23.976 fps / 16:9 / Main 10 @ Level 5.1 @ High / 10 bits / HDR10 / BT.2020
* Video: MPEG-H HEVC Video / 4961 kbps / 1080p / 23.976 fps / 16:9 / Main 10 @ Level 5.1 @ High / 10 bits / Dolby Vision / BT.2020
Audio: English / Dolby TrueHD/Atmos Audio / 7.1 / 48 kHz / 4434 kbps / 24-bit (AC3 Embedded: 5.1-EX / 48 kHz / 640 kbps / DN -27dB)
Audio: English / Dolby Digital Audio / 5.1 / 48 kHz / 640 kbps / DN -27dB
Audio: German / Dolby Digital Audio / 5.1 / 48 kHz / 640 kbps / DN -27dB
Audio: Spanish / Dolby Digital Audio / 5.1 / 48 kHz / 640 kbps / DN -27dB
Audio: Spanish / Dolby Digital Audio / 5.1 / 48 kHz / 640 kbps / DN -27dB
Audio: French / Dolby Digital Audio / 5.1 / 48 kHz / 640 kbps / DN -27dB
Audio: French / Dolby Digital Audio / 5.1 / 48 kHz / 640 kbps / DN -27dB
Audio: Italian / Dolby Digital Audio / 5.1 / 48 kHz / 640 kbps / DN -27dB
Audio: Japanese / Dolby Digital Audio / 5.1 / 48 kHz / 640 kbps / DN -27dB
Audio: Russian / Dolby Digital Audio / 5.1 / 48 kHz / 640 kbps / DN -27dB
Audio: Thai / Dolby Digital Audio / 5.1 / 48 kHz / 640 kbps / DN -27dB
Audio: English / Dolby Digital Audio / 2.0 / 48 kHz / 224 kbps / DN -31dB
Subtitle: English / 41.799 kbps
Subtitle: English / 48.554 kbps
Subtitle: Malay / 47.334 kbps
Subtitle: Chinese / 31.574 kbps
Subtitle: Czech / 35.902 kbps
Subtitle: Danish / 35.543 kbps
Subtitle: German / 41.200 kbps
Subtitle: Greek / 40.366 kbps
Subtitle: Spanish / 38.096 kbps
Subtitle: Spanish / 40.221 kbps
Subtitle: French / 32.494 kbps
Subtitle: French / 43.527 kbps
Subtitle: Italian / 38.741 kbps
Subtitle: Japanese / 24.549 kbps
Subtitle: Korean / 23.326 kbps
Subtitle: Chinese / 29.592 kbps
Subtitle: Dutch / 34.042 kbps
Subtitle: Norwegian / 34.025 kbps
Subtitle: Russian / 37.744 kbps
Subtitle: Romanian / 36.749 kbps
Subtitle: Finnish / 36.299 kbps
Subtitle: Swedish / 35.638 kbps
Subtitle: Thai / 33.093 kbps
Subtitle: Turkish / 42.132 kbps
Subtitle: English / 79.966 kbps
Subtitle: German / 66.305 kbps
Subtitle: Spanish / 70.934 kbps
Subtitle: Spanish / 67.051 kbps
Subtitle: French / 65.985 kbps
Subtitle: French / 77.917 kbps
Subtitle: Italian / 64.708 kbps
Subtitle: Japanese / 44.620 kbps


********************
PLAYLIST: 01077.MPLS
********************


Код:
 Total Video 
 Title Codec Length Movie Size Disc Size Bitrate Bitrate Main Audio Track Secondary Audio Track
 ----- ------ ------- -------------- -------------- ------- ------- ------------------ ---------------------
 01077.MPLS HEVC 0:01:50 77,524,992 63,100,477,972 5.63 5.33
Код:
 DISC INFO:

 Disc Title: Sonic The Hedgehog
 Disc Label: Sonic.the.Hedgehog.2020.UHD.BluRay.2160p.HEVC.TrueHD.Atmos.7.1-BeyondHD
 Disc Size: 63,100,477,972 bytes
 Protection: AACS2
 Extras: Ultra HD, BD-Java
 BDInfo: 0.7.5.5

 PLAYLIST REPORT:

 Name: 01077.MPLS
 Length: 0:01:50.109 (h:m:s.ms)
 Size: 77,524,992 bytes
 Total Bitrate: 5.63 Mbps

 VIDEO:

 Codec Bitrate Deion 
 ----- ------- ----------- 
 MPEG-H HEVC Video 5327 kbps 2160p / 23.976 fps / 16:9 / Main 10 @ Level 5.1 @ High / 10 bits / BT.709

 FILES:

 Name Time In Length Size Total Bitrate 
 ---- ------- ------ ---- ------------- 
 00558.M2TS 0:00:00.000 0:01:50.109 77,524,992 5,633 

 CHAPTERS:

 Number Time In Length Avg Video Rate Max 1-Sec Rate Max 1-Sec Time Max 5-Sec Rate Max 5-Sec Time Max 10Sec Rate Max 10Sec Time Avg Frame Size Max Frame Size Max Frame Time 
 ------ ------- ------ -------------- -------------- -------------- -------------- -------------- -------------- -------------- -------------- -------------- -------------- 
 1 0:00:00.000 0:00:10.010 6,188 kbps 9,121 kbps 00:00:09.009 6,600 kbps 00:00:05.005 5,773 kbps 00:00:00.000 0 bytes 535,018 bytes 00:00:10.010 
 2 0:00:10.010 0:00:10.009 5,814 kbps 9,259 kbps 00:00:10.760 6,581 kbps 00:00:15.015 5,814 kbps 00:00:10.010 0 bytes 539,156 bytes 00:00:10.802 
 3 0:00:20.020 0:00:10.010 4,987 kbps 8,040 kbps 00:00:29.029 5,717 kbps 00:00:25.025 4,987 kbps 00:00:20.020 0 bytes 484,577 bytes 00:00:30.030 
 4 0:00:30.030 0:00:10.009 5,430 kbps 8,819 kbps 00:00:39.039 6,233 kbps 00:00:35.035 5,430 kbps 00:00:30.030 0 bytes 536,137 bytes 00:00:40.040 
 5 0:00:40.040 0:00:10.009 5,900 kbps 9,333 kbps 00:00:40.790 6,698 kbps 00:00:45.045 5,900 kbps 00:00:40.040 0 bytes 542,365 bytes 00:00:40.832 
 6 0:00:50.050 0:00:10.010 5,353 kbps 8,435 kbps 00:00:50.800 6,075 kbps 00:00:55.055 5,353 kbps 00:00:50.050 0 bytes 488,348 bytes 00:00:50.842 
 7 0:01:00.060 0:00:10.010 4,967 kbps 7,898 kbps 00:01:09.069 5,678 kbps 00:01:05.065 4,967 kbps 00:01:00.060 0 bytes 467,549 bytes 00:01:10.070 
 8 0:01:10.070 0:00:10.009 5,269 kbps 8,693 kbps 00:01:19.078 6,059 kbps 00:01:15.075 5,269 kbps 00:01:10.070 0 bytes 539,129 bytes 00:01:20.080 
 9 0:01:20.080 0:00:10.010 5,948 kbps 9,533 kbps 00:01:29.089 6,819 kbps 00:01:25.085 5,948 kbps 00:01:20.080 0 bytes 569,538 bytes 00:01:30.090 
 10 0:01:30.090 0:00:10.009 6,043 kbps 9,875 kbps 00:01:30.840 6,701 kbps 00:01:35.095 6,043 kbps 00:01:30.090 0 bytes 574,789 bytes 00:01:30.882 
 11 0:01:40.100 0:00:10.009 2,701 kbps 4,646 kbps 00:01:40.850 2,921 kbps 00:01:40.850 0 kbps 00:00:00.000 0 bytes 274,172 bytes 00:01:40.892 

 STREAM DIAGNOSTICS:

 File PID Type Codec Language Seconds Bitrate Bytes Packets 
 ---- --- ---- ----- -------- -------------- -------------- ------------- ----- 
 00558.M2TS 4113 (0x1011) 0x24 HEVC 109.985 5,333 73,324,531 400,071

QUICK SUMMARY:

Disc Title: Sonic The Hedgehog
Disc Label: Sonic.the.Hedgehog.2020.UHD.BluRay.2160p.HEVC.TrueHD.Atmos.7.1-BeyondHD
Disc Size: 63,100,477,972 bytes
Protection: AACS2
Playlist: 01077.MPLS
Size: 77,524,992 bytes
Length: 0:01:50.109
Total Bitrate: 5.63 Mbps
Video: MPEG-H HEVC Video / 5327 kbps / 2160p / 23.976 fps / 16:9 / Main 10 @ Level 5.1 @ High / 10 bits / BT.709


********************
PLAYLIST: 00003.MPLS
********************


Код:
 Total Video 
 Title Codec Length Movie Size Disc Size Bitrate Bitrate Main Audio Track Secondary Audio Track
 ----- ------ ------- -------------- -------------- ------- ------- ------------------ ---------------------
 00003.MPLS HEVC 0:00:30 301,977,600 63,100,477,972 78.91 72.83 DD AC3 2.0 224Kbps
Код:
 DISC INFO:

 Disc Title: Sonic The Hedgehog
 Disc Label: Sonic.the.Hedgehog.2020.UHD.BluRay.2160p.HEVC.TrueHD.Atmos.7.1-BeyondHD
 Disc Size: 63,100,477,972 bytes
 Protection: AACS2
 Extras: Ultra HD, BD-Java
 BDInfo: 0.7.5.5

 PLAYLIST REPORT:

 Name: 00003.MPLS
 Length: 0:00:30.613 (h:m:s.ms)
 Size: 301,977,600 bytes
 Total Bitrate: 78.91 Mbps

 (*) Indicates included stream hidden by this playlist.

 VIDEO:

 Codec Bitrate Deion 
 ----- ------- ----------- 
 MPEG-H HEVC Video 72830 kbps 2160p / 23.976 fps / 16:9 / Main 10 @ Level 5.1 @ High / 10 bits / HDR10 / BT.2020
 * MPEG-H HEVC Video 2471 kbps 1080p / 23.976 fps / 16:9 / Main 10 @ Level 5.1 @ High / 10 bits / Dolby Vision / BT.2020

 AUDIO:

 Codec Language Bitrate Deion 
 ----- -------- ------- ----------- 
 Dolby Digital Audio English 224 kbps 2.0 / 48 kHz / 224 kbps / DN -31dB

 FILES:

 Name Time In Length Size Total Bitrate 
 ---- ------- ------ ---- ------------- 
 00254.M2TS 0:00:00.000 0:00:30.613 301,977,600 78,913 

 CHAPTERS:

 Number Time In Length Avg Video Rate Max 1-Sec Rate Max 1-Sec Time Max 5-Sec Rate Max 5-Sec Time Max 10Sec Rate Max 10Sec Time Avg Frame Size Max Frame Size Max Frame Time 
 ------ ------- ------ -------------- -------------- -------------- -------------- -------------- -------------- -------------- -------------- -------------- -------------- 
 1 0:00:00.000 0:00:00.166 204 kbps 0 kbps 00:00:00.000 0 kbps 00:00:00.000 0 kbps 00:00:00.000 0 bytes 3,055 bytes 00:00:00.000 
 2 0:00:00.166 0:00:30.447 73,227 kbps 120,963 kbps 00:00:14.681 88,270 kbps 00:00:12.262 83,147 kbps 00:00:06.673 0 bytes 1,381,751 bytes 00:00:15.056 

 STREAM DIAGNOSTICS:

 File PID Type Codec Language Seconds Bitrate Bytes Packets 
 ---- --- ---- ----- -------- -------------- -------------- ------------- ----- 
 00254.M2TS 4113 (0x1011) 0x24 HEVC 30.531 73,028 278,699,522 1,515,082 
 00254.M2TS 4117 (0x1015) 0x24 HEVC 30.531 2,478 9,456,580 51,866 
 00254.M2TS 4352 (0x1100) 0x81 AC3 eng (English) 30.531 225 857,472 4,785

QUICK SUMMARY:

Disc Title: Sonic The Hedgehog
Disc Label: Sonic.the.Hedgehog.2020.UHD.BluRay.2160p.HEVC.TrueHD.Atmos.7.1-BeyondHD
Disc Size: 63,100,477,972 bytes
Protection: AACS2
Playlist: 00003.MPLS
Size: 301,977,600 bytes
Length: 0:00:30.613
Total Bitrate: 78.91 Mbps
Video: MPEG-H HEVC Video / 72830 kbps / 2160p / 23.976 fps / 16:9 / Main 10 @ Level 5.1 @ High / 10 bits / HDR10 / BT.2020
* Video: MPEG-H HEVC Video / 2471 kbps / 1080p / 23.976 fps / 16:9 / Main 10 @ Level 5.1 @ High / 10 bits / Dolby Vision / BT.2020
Audio: English / Dolby Digital Audio / 2.0 / 48 kHz / 224 kbps / DN -31dB


********************
PLAYLIST: 00105.MPLS
********************


Код:
 Total Video 
 Title Codec Length Movie Size Disc Size Bitrate Bitrate Main Audio Track Secondary Audio Track
 ----- ------ ------- -------------- -------------- ------- ------- ------------------ ---------------------
 00105.MPLS HEVC 0:00:30 301,971,456 63,100,477,972 78.91 72.83 DD AC3 2.0 224Kbps
Код:
 DISC INFO:

 Disc Title: Sonic The Hedgehog
 Disc Label: Sonic.the.Hedgehog.2020.UHD.BluRay.2160p.HEVC.TrueHD.Atmos.7.1-BeyondHD
 Disc Size: 63,100,477,972 bytes
 Protection: AACS2
 Extras: Ultra HD, BD-Java
 BDInfo: 0.7.5.5

 PLAYLIST REPORT:

 Name: 00105.MPLS
 Length: 0:00:30.613 (h:m:s.ms)
 Size: 301,971,456 bytes
 Total Bitrate: 78.91 Mbps

 (*) Indicates included stream hidden by this playlist.

 VIDEO:

 Codec Bitrate Deion 
 ----- ------- ----------- 
 MPEG-H HEVC Video 72830 kbps 2160p / 23.976 fps / 16:9 / Main 10 @ Level 5.1 @ High / 10 bits / HDR10 / BT.2020
 * MPEG-H HEVC Video 2471 kbps 1080p / 23.976 fps / 16:9 / Main 10 @ Level 5.1 @ High / 10 bits / Dolby Vision / BT.2020

 AUDIO:

 Codec Language Bitrate Deion 
 ----- -------- ------- ----------- 
 Dolby Digital Audio English 224 kbps 2.0 / 48 kHz / 224 kbps / DN -31dB

 FILES:

 Name Time In Length Size Total Bitrate 
 ---- ------- ------ ---- ------------- 
 00292.M2TS 0:00:00.000 0:00:30.613 301,971,456 78,911 

 CHAPTERS:

 Number Time In Length Avg Video Rate Max 1-Sec Rate Max 1-Sec Time Max 5-Sec Rate Max 5-Sec Time Max 10Sec Rate Max 10Sec Time Avg Frame Size Max Frame Size Max Frame Time 
 ------ ------- ------ -------------- -------------- -------------- -------------- -------------- -------------- -------------- -------------- -------------- -------------- 
 1 0:00:00.000 0:00:00.166 204 kbps 0 kbps 00:00:00.000 0 kbps 00:00:00.000 0 kbps 00:00:00.000 0 bytes 3,055 bytes 00:00:00.000 
 2 0:00:00.166 0:00:30.447 73,227 kbps 120,963 kbps 00:00:14.681 88,270 kbps 00:00:12.262 83,147 kbps 00:00:06.673 0 bytes 1,381,751 bytes 00:00:15.056 

 STREAM DIAGNOSTICS:

 File PID Type Codec Language Seconds Bitrate Bytes Packets 
 ---- --- ---- ----- -------- -------------- -------------- ------------- ----- 
 00292.M2TS 4113 (0x1011) 0x24 HEVC 30.531 73,028 278,699,522 1,515,082 
 00292.M2TS 4117 (0x1015) 0x24 HEVC 30.531 2,478 9,456,580 51,866 
 00292.M2TS 4352 (0x1100) 0x81 AC3 eng (English) 30.531 225 857,472 4,785

QUICK SUMMARY:

Disc Title: Sonic The Hedgehog
Disc Label: Sonic.the.Hedgehog.2020.UHD.BluRay.2160p.HEVC.TrueHD.Atmos.7.1-BeyondHD
Disc Size: 63,100,477,972 bytes
Protection: AACS2
Playlist: 00105.MPLS
Size: 301,971,456 bytes
Length: 0:00:30.613
Total Bitrate: 78.91 Mbps
Video: MPEG-H HEVC Video / 72830 kbps / 2160p / 23.976 fps / 16:9 / Main 10 @ Level 5.1 @ High / 10 bits / HDR10 / BT.2020
* Video: MPEG-H HEVC Video / 2471 kbps / 1080p / 23.976 fps / 16:9 / Main 10 @ Level 5.1 @ High / 10 bits / Dolby Vision / BT.2020
Audio: English / Dolby Digital Audio / 2.0 / 48 kHz / 224 kbps / DN -31dB


********************
PLAYLIST: 00399.MPLS
********************


Код:
 Total Video 
 Title Codec Length Movie Size Disc Size Bitrate Bitrate Main Audio Track Secondary Audio Track
 ----- ------ ------- -------------- -------------- ------- ------- ------------------ ---------------------
 00399.MPLS HEVC 0:00:30 24,041,472 63,100,477,972 6.40 3.93
Код:
 DISC INFO:

 Disc Title: Sonic The Hedgehog
 Disc Label: Sonic.the.Hedgehog.2020.UHD.BluRay.2160p.HEVC.TrueHD.Atmos.7.1-BeyondHD
 Disc Size: 63,100,477,972 bytes
 Protection: AACS2
 Extras: Ultra HD, BD-Java
 BDInfo: 0.7.5.5

 PLAYLIST REPORT:

 Name: 00399.MPLS
 Length: 0:00:30.029 (h:m:s.ms)
 Size: 24,041,472 bytes
 Total Bitrate: 6.40 Mbps

 (*) Indicates included stream hidden by this playlist.

 VIDEO:

 Codec Bitrate Deion 
 ----- ------- ----------- 
 MPEG-H HEVC Video 3933 kbps 2160p / 23.976 fps / 16:9 / Main 10 @ Level 5.1 @ High / 10 bits / HDR10 / BT.2020
 * MPEG-H HEVC Video 2108 kbps 1080p / 23.976 fps / 16:9 / Main 10 @ Level 5.1 @ High / 10 bits / Dolby Vision / BT.2020

 FILES:

 Name Time In Length Size Total Bitrate 
 ---- ------- ------ ---- ------------- 
 00496.M2TS 0:00:00.000 0:00:30.029 24,041,472 6,405 

 CHAPTERS:

 Number Time In Length Avg Video Rate Max 1-Sec Rate Max 1-Sec Time Max 5-Sec Rate Max 5-Sec Time Max 10Sec Rate Max 10Sec Time Avg Frame Size Max Frame Size Max Frame Time 
 ------ ------- ------ -------------- -------------- -------------- -------------- -------------- -------------- -------------- -------------- -------------- -------------- 
 1 0:00:00.000 0:00:30.029 3,933 kbps 6,068 kbps 00:00:28.778 4,025 kbps 00:00:00.750 4,023 kbps 00:00:00.750 0 bytes 333,157 bytes 00:00:00.000 

 STREAM DIAGNOSTICS:

 File PID Type Codec Language Seconds Bitrate Bytes Packets 
 ---- --- ---- ----- -------- -------------- -------------- ------------- ----- 
 00496.M2TS 4113 (0x1011) 0x24 HEVC 29.905 3,949 14,762,129 80,697 
 00496.M2TS 4117 (0x1015) 0x24 HEVC 29.905 2,117 7,913,209 43,510

QUICK SUMMARY:

Disc Title: Sonic The Hedgehog
Disc Label: Sonic.the.Hedgehog.2020.UHD.BluRay.2160p.HEVC.TrueHD.Atmos.7.1-BeyondHD
Disc Size: 63,100,477,972 bytes
Protection: AACS2
Playlist: 00399.MPLS
Size: 24,041,472 bytes
Length: 0:00:30.029
Total Bitrate: 6.40 Mbps
Video: MPEG-H HEVC Video / 3933 kbps / 2160p / 23.976 fps / 16:9 / Main 10 @ Level 5.1 @ High / 10 bits / HDR10 / BT.2020
* Video: MPEG-H HEVC Video / 2108 kbps / 1080p / 23.976 fps / 16:9 / Main 10 @ Level 5.1 @ High / 10 bits / Dolby Vision / BT.2020


********************
PLAYLIST: 00000.MPLS
********************


Код:
 Total Video 
 Title Codec Length Movie Size Disc Size Bitrate Bitrate Main Audio Track Secondary Audio Track
 ----- ------ ------- -------------- -------------- ------- ------- ------------------ ---------------------
 00000.MPLS HEVC 0:00:22 172,056,576 63,100,477,972 62.15 50.99 Dolby TrueHD 7.1 3642Kbps (48kHz/16-bit)
Код:
 DISC INFO:

 Disc Title: Sonic The Hedgehog
 Disc Label: Sonic.the.Hedgehog.2020.UHD.BluRay.2160p.HEVC.TrueHD.Atmos.7.1-BeyondHD
 Disc Size: 63,100,477,972 bytes
 Protection: AACS2
 Extras: Ultra HD, BD-Java
 BDInfo: 0.7.5.5

 PLAYLIST REPORT:

 Name: 00000.MPLS
 Length: 0:00:22.147 (h:m:s.ms)
 Size: 172,056,576 bytes
 Total Bitrate: 62.15 Mbps

 (*) Indicates included stream hidden by this playlist.

 VIDEO:

 Codec Bitrate Deion 
 ----- ------- ----------- 
 MPEG-H HEVC Video 50988 kbps 2160p / 23.976 fps / 16:9 / Main 10 @ Level 5.1 @ High / 10 bits / HDR10 / BT.2020
 * MPEG-H HEVC Video 3551 kbps 1080p / 23.976 fps / 16:9 / Main 10 @ Level 5.1 @ High / 10 bits / Dolby Vision / BT.2020

 AUDIO:

 Codec Language Bitrate Deion 
 ----- -------- ------- ----------- 
 Dolby TrueHD Audio English 3642 kbps 7.1 / 48 kHz / 3002 kbps / 16-bit (AC3 Embedded: 5.1 / 48 kHz / 640 kbps / DN -31dB)

 FILES:

 Name Time In Length Size Total Bitrate 
 ---- ------- ------ ---- ------------- 
 00000.M2TS 0:00:00.000 0:00:22.147 172,056,576 62,150 

 CHAPTERS:

 Number Time In Length Avg Video Rate Max 1-Sec Rate Max 1-Sec Time Max 5-Sec Rate Max 5-Sec Time Max 10Sec Rate Max 10Sec Time Avg Frame Size Max Frame Size Max Frame Time 
 ------ ------- ------ -------------- -------------- -------------- -------------- -------------- -------------- -------------- -------------- -------------- -------------- 
 1 0:00:00.000 0:00:22.147 50,988 kbps 78,022 kbps 00:00:01.001 62,240 kbps 00:00:10.176 60,049 kbps 00:00:06.006 0 bytes 950,257 bytes 00:00:11.302 

 STREAM DIAGNOSTICS:

 File PID Type Codec Language Seconds Bitrate Bytes Packets 
 ---- --- ---- ----- -------- -------------- -------------- ------------- ----- 
 00000.M2TS 4113 (0x1011) 0x24 HEVC 22.022 51,277 141,153,499 767,434 
 00000.M2TS 4117 (0x1015) 0x24 HEVC 22.022 3,571 9,829,632 53,737 
 00000.M2TS 4352 (0x1100) 0x83 TrueHD eng (English) 22.022 3,663 10,082,062 74,164

QUICK SUMMARY:

Disc Title: Sonic The Hedgehog
Disc Label: Sonic.the.Hedgehog.2020.UHD.BluRay.2160p.HEVC.TrueHD.Atmos.7.1-BeyondHD
Disc Size: 63,100,477,972 bytes
Protection: AACS2
Playlist: 00000.MPLS
Size: 172,056,576 bytes
Length: 0:00:22.147
Total Bitrate: 62.15 Mbps
Video: MPEG-H HEVC Video / 50988 kbps / 2160p / 23.976 fps / 16:9 / Main 10 @ Level 5.1 @ High / 10 bits / HDR10 / BT.2020
* Video: MPEG-H HEVC Video / 3551 kbps / 1080p / 23.976 fps / 16:9 / Main 10 @ Level 5.1 @ High / 10 bits / Dolby Vision / BT.2020
Audio: English / Dolby TrueHD Audio / 7.1 / 48 kHz / 3002 kbps / 16-bit (AC3 Embedded: 5.1 / 48 kHz / 640 kbps / DN -31dB)


********************
PLAYLIST: 00524.MPLS
********************


Код:
 Total Video 
 Title Codec Length Movie Size Disc Size Bitrate Bitrate Main Audio Track Secondary Audio Track
 ----- ------ ------- -------------- -------------- ------- ------- ------------------ ---------------------
 00524.MPLS HEVC 0:00:21 21,282,816 63,100,477,972 8.10 5.51
Код:
 DISC INFO:

 Disc Title: Sonic The Hedgehog
 Disc Label: Sonic.the.Hedgehog.2020.UHD.BluRay.2160p.HEVC.TrueHD.Atmos.7.1-BeyondHD
 Disc Size: 63,100,477,972 bytes
 Protection: AACS2
 Extras: Ultra HD, BD-Java
 BDInfo: 0.7.5.5

 PLAYLIST REPORT:

 Name: 00524.MPLS
 Length: 0:00:21.020 (h:m:s.ms)
 Size: 21,282,816 bytes
 Total Bitrate: 8.10 Mbps

 (*) Indicates included stream hidden by this playlist.

 VIDEO:

 Codec Bitrate Deion 
 ----- ------- ----------- 
 MPEG-H HEVC Video 5512 kbps 2160p / 23.976 fps / 16:9 / Main 10 @ Level 5.1 @ High / 10 bits / HDR10 / BT.2020
 * MPEG-H HEVC Video 2159 kbps 1080p / 23.976 fps / 16:9 / Main 10 @ Level 5.1 @ High / 10 bits / Dolby Vision / BT.2020

 FILES:

 Name Time In Length Size Total Bitrate 
 ---- ------- ------ ---- ------------- 
 00514.M2TS 0:00:00.000 0:00:07.006 8,085,504 9,231 
 00524.M2TS 0:00:07.006 0:00:07.006 5,246,976 5,991 
 00557.M2TS 0:00:14.013 0:00:07.006 7,950,336 9,077 

 CHAPTERS:

 Number Time In Length Avg Video Rate Max 1-Sec Rate Max 1-Sec Time Max 5-Sec Rate Max 5-Sec Time Max 10Sec Rate Max 10Sec Time Avg Frame Size Max Frame Size Max Frame Time 
 ------ ------- ------ -------------- -------------- -------------- -------------- -------------- -------------- -------------- -------------- -------------- -------------- 
 1 0:00:00.000 0:00:07.006 6,959 kbps 10,435 kbps 00:00:01.626 6,885 kbps 00:00:01.543 0 kbps 00:00:00.000 0 bytes 578,422 bytes 00:00:00.000 
 2 0:00:07.006 0:00:07.006 3,802 kbps 7,797 kbps 00:00:13.012 4,064 kbps 00:00:09.008 0 kbps 00:00:00.000 0 bytes 591,153 bytes 00:00:14.013 
 3 0:00:14.013 0:00:07.006 5,774 kbps 10,376 kbps 00:00:15.640 6,731 kbps 00:00:15.640 0 kbps 00:00:00.000 0 bytes 588,146 bytes 00:00:14.806 

 STREAM DIAGNOSTICS:

 File PID Type Codec Language Seconds Bitrate Bytes Packets 
 ---- --- ---- ----- -------- -------------- -------------- ------------- ----- 
 00514.M2TS 4113 (0x1011) 0x24 HEVC 6.882 6,719 5,780,296 31,508 
 00514.M2TS 4117 (0x1015) 0x24 HEVC 6.882 2,199 1,891,334 10,364 
 00524.M2TS 4113 (0x1011) 0x24 HEVC 6.882 3,550 3,053,943 16,702 
 00524.M2TS 4117 (0x1015) 0x24 HEVC 6.882 2,199 1,891,334 10,364 
 00557.M2TS 4113 (0x1011) 0x24 HEVC 6.882 6,566 5,648,230 30,797 
 00557.M2TS 4117 (0x1015) 0x24 HEVC 6.882 2,199 1,891,334 10,364

QUICK SUMMARY:

Disc Title: Sonic The Hedgehog
Disc Label: Sonic.the.Hedgehog.2020.UHD.BluRay.2160p.HEVC.TrueHD.Atmos.7.1-BeyondHD
Disc Size: 63,100,477,972 bytes
Protection: AACS2
Playlist: 00524.MPLS
Size: 21,282,816 bytes
Length: 0:00:21.020
Total Bitrate: 8.10 Mbps
Video: MPEG-H HEVC Video / 5512 kbps / 2160p / 23.976 fps / 16:9 / Main 10 @ Level 5.1 @ High / 10 bits / HDR10 / BT.2020
* Video: MPEG-H HEVC Video / 2159 kbps / 1080p / 23.976 fps / 16:9 / Main 10 @ Level 5.1 @ High / 10 bits / Dolby Vision / BT.2020


********************
PLAYLIST: 01072.MPLS
********************


Код:
 Total Video 
 Title Codec Length Movie Size Disc Size Bitrate Bitrate Main Audio Track Secondary Audio Track
 ----- ------ ------- -------------- -------------- ------- ------- ------------------ ---------------------
 01072.MPLS HEVC 0:00:21 12,343,296 63,100,477,972 4.70 2.25
Код:
 DISC INFO:

 Disc Title: Sonic The Hedgehog
 Disc Label: Sonic.the.Hedgehog.2020.UHD.BluRay.2160p.HEVC.TrueHD.Atmos.7.1-BeyondHD
 Disc Size: 63,100,477,972 bytes
 Protection: AACS2
 Extras: Ultra HD, BD-Java
 BDInfo: 0.7.5.5

 PLAYLIST REPORT:

 Name: 01072.MPLS
 Length: 0:00:21.020 (h:m:s.ms)
 Size: 12,343,296 bytes
 Total Bitrate: 4.70 Mbps

 (*) Indicates included stream hidden by this playlist.

 VIDEO:

 Codec Bitrate Deion 
 ----- ------- ----------- 
 MPEG-H HEVC Video 2253 kbps 2160p / 23.976 fps / 16:9 / Main 10 @ Level 5.1 @ High / 10 bits / HDR10 / BT.2020
 * MPEG-H HEVC Video 2159 kbps 1080p / 23.976 fps / 16:9 / Main 10 @ Level 5.1 @ High / 10 bits / Dolby Vision / BT.2020

 FILES:

 Name Time In Length Size Total Bitrate 
 ---- ------- ------ ---- ------------- 
 00592.M2TS 0:00:00.000 0:00:07.006 4,067,328 4,644 
 00593.M2TS 0:00:07.006 0:00:07.006 3,901,440 4,454 
 00594.M2TS 0:00:14.013 0:00:07.006 4,374,528 4,994 

 CHAPTERS:

 Number Time In Length Avg Video Rate Max 1-Sec Rate Max 1-Sec Time Max 5-Sec Rate Max 5-Sec Time Max 10Sec Rate Max 10Sec Time Avg Frame Size Max Frame Size Max Frame Time 
 ------ ------- ------ -------------- -------------- -------------- -------------- -------------- -------------- -------------- -------------- -------------- -------------- 
 1 0:00:00.000 0:00:07.006 2,429 kbps 3,647 kbps 00:00:00.750 2,307 kbps 00:00:00.750 0 kbps 00:00:00.000 0 bytes 213,330 bytes 00:00:00.792 
 2 0:00:07.006 0:00:07.006 2,072 kbps 3,682 kbps 00:00:13.012 2,174 kbps 00:00:09.008 0 kbps 00:00:00.000 0 bytes 238,450 bytes 00:00:14.013 
 3 0:00:14.013 0:00:07.006 2,258 kbps 4,145 kbps 00:00:14.764 2,642 kbps 00:00:14.764 0 kbps 00:00:00.000 0 bytes 240,226 bytes 00:00:14.806 

 STREAM DIAGNOSTICS:

 File PID Type Codec Language Seconds Bitrate Bytes Packets 
 ---- --- ---- ----- -------- -------------- -------------- ------------- ----- 
 00592.M2TS 4113 (0x1011) 0x24 HEVC 6.882 2,248 1,933,654 10,584 
 00592.M2TS 4117 (0x1015) 0x24 HEVC 6.882 2,199 1,891,334 10,364 
 00593.M2TS 4113 (0x1011) 0x24 HEVC 6.882 2,058 1,770,565 9,702 
 00593.M2TS 4117 (0x1015) 0x24 HEVC 6.882 2,199 1,891,334 10,364 
 00594.M2TS 4113 (0x1011) 0x24 HEVC 6.882 2,576 2,216,381 12,163 
 00594.M2TS 4117 (0x1015) 0x24 HEVC 6.882 2,199 1,891,334 10,364

QUICK SUMMARY:

Disc Title: Sonic The Hedgehog
Disc Label: Sonic.the.Hedgehog.2020.UHD.BluRay.2160p.HEVC.TrueHD.Atmos.7.1-BeyondHD
Disc Size: 63,100,477,972 bytes
Protection: AACS2
Playlist: 01072.MPLS
Size: 12,343,296 bytes
Length: 0:00:21.020
Total Bitrate: 4.70 Mbps
Video: MPEG-H HEVC Video / 2253 kbps / 2160p / 23.976 fps / 16:9 / Main 10 @ Level 5.1 @ High / 10 bits / HDR10 / BT.2020
* Video: MPEG-H HEVC Video / 2159 kbps / 1080p / 23.976 fps / 16:9 / Main 10 @ Level 5.1 @ High / 10 bits / Dolby Vision / BT.2020


********************
PLAYLIST: 01163.MPLS
********************


Код:
 Total Video 
 Title Codec Length Movie Size Disc Size Bitrate Bitrate Main Audio Track Secondary Audio Track
 ----- ------ ------- -------------- -------------- ------- ------- ------------------ ---------------------
 01163.MPLS HEVC 0:00:21 8,878,080 63,100,477,972 3.38 0.99
Код:
 DISC INFO:

 Disc Title: Sonic The Hedgehog
 Disc Label: Sonic.the.Hedgehog.2020.UHD.BluRay.2160p.HEVC.TrueHD.Atmos.7.1-BeyondHD
 Disc Size: 63,100,477,972 bytes
 Protection: AACS2
 Extras: Ultra HD, BD-Java
 BDInfo: 0.7.5.5

 PLAYLIST REPORT:

 Name: 01163.MPLS
 Length: 0:00:21.020 (h:m:s.ms)
 Size: 8,878,080 bytes
 Total Bitrate: 3.38 Mbps

 (*) Indicates included stream hidden by this playlist.

 VIDEO:

 Codec Bitrate Deion 
 ----- ------- ----------- 
 MPEG-H HEVC Video 985 kbps 2160p / 23.976 fps / 16:9 / Main 10 @ Level 5.1 @ High / 10 bits / HDR10 / BT.2020
 * MPEG-H HEVC Video 2159 kbps 1080p / 23.976 fps / 16:9 / Main 10 @ Level 5.1 @ High / 10 bits / Dolby Vision / BT.2020

 FILES:

 Name Time In Length Size Total Bitrate 
 ---- ------- ------ ---- ------------- 
 00579.M2TS 0:00:00.000 0:00:07.006 3,520,512 4,019 
 00580.M2TS 0:00:07.006 0:00:07.006 2,666,496 3,044 
 00581.M2TS 0:00:14.013 0:00:07.006 2,691,072 3,072 

 CHAPTERS:

 Number Time In Length Avg Video Rate Max 1-Sec Rate Max 1-Sec Time Max 5-Sec Rate Max 5-Sec Time Max 10Sec Rate Max 10Sec Time Avg Frame Size Max Frame Size Max Frame Time 
 ------ ------- ------ -------------- -------------- -------------- -------------- -------------- -------------- -------------- -------------- -------------- -------------- 
 1 0:00:00.000 0:00:07.006 1,667 kbps 2,643 kbps 00:00:00.750 1,669 kbps 00:00:00.750 0 kbps 00:00:00.000 0 bytes 154,906 bytes 00:00:00.792 
 2 0:00:07.006 0:00:07.006 671 kbps 1,087 kbps 00:00:13.012 698 kbps 00:00:07.757 0 kbps 00:00:00.000 0 bytes 61,962 bytes 00:00:14.013 
 3 0:00:14.013 0:00:07.006 618 kbps 1,106 kbps 00:00:14.764 718 kbps 00:00:14.764 0 kbps 00:00:00.000 0 bytes 62,268 bytes 00:00:14.806 

 STREAM DIAGNOSTICS:

 File PID Type Codec Language Seconds Bitrate Bytes Packets 
 ---- --- ---- ----- -------- -------------- -------------- ------------- ----- 
 00579.M2TS 4113 (0x1011) 0x24 HEVC 6.882 1,626 1,398,846 7,713 
 00579.M2TS 4117 (0x1015) 0x24 HEVC 6.882 2,199 1,891,334 10,364 
 00580.M2TS 4113 (0x1011) 0x24 HEVC 6.882 682 586,782 3,269 
 00580.M2TS 4117 (0x1015) 0x24 HEVC 6.882 2,199 1,891,334 10,364 
 00581.M2TS 4113 (0x1011) 0x24 HEVC 6.882 701 602,938 3,386 
 00581.M2TS 4117 (0x1015) 0x24 HEVC 6.882 2,199 1,891,334 10,364

QUICK SUMMARY:

Disc Title: Sonic The Hedgehog
Disc Label: Sonic.the.Hedgehog.2020.UHD.BluRay.2160p.HEVC.TrueHD.Atmos.7.1-BeyondHD
Disc Size: 63,100,477,972 bytes
Protection: AACS2
Playlist: 01163.MPLS
Size: 8,878,080 bytes
Length: 0:00:21.020
Total Bitrate: 3.38 Mbps
Video: MPEG-H HEVC Video / 985 kbps / 2160p / 23.976 fps / 16:9 / Main 10 @ Level 5.1 @ High / 10 bits / HDR10 / BT.2020
* Video: MPEG-H HEVC Video / 2159 kbps / 1080p / 23.976 fps / 16:9 / Main 10 @ Level 5.1 @ High / 10 bits / Dolby Vision / BT.2020


********************
PLAYLIST: 01164.MPLS
********************


Код:
 Total Video 
 Title Codec Length Movie Size Disc Size Bitrate Bitrate Main Audio Track Secondary Audio Track
 ----- ------ ------- -------------- -------------- ------- ------- ------------------ ---------------------
 01164.MPLS HEVC 0:00:21 10,070,016 63,100,477,972 3.83 1.42
Код:
 DISC INFO:

 Disc Title: Sonic The Hedgehog
 Disc Label: Sonic.the.Hedgehog.2020.UHD.BluRay.2160p.HEVC.TrueHD.Atmos.7.1-BeyondHD
 Disc Size: 63,100,477,972 bytes
 Protection: AACS2
 Extras: Ultra HD, BD-Java
 BDInfo: 0.7.5.5

 PLAYLIST REPORT:

 Name: 01164.MPLS
 Length: 0:00:21.020 (h:m:s.ms)
 Size: 10,070,016 bytes
 Total Bitrate: 3.83 Mbps

 (*) Indicates included stream hidden by this playlist.

 VIDEO:

 Codec Bitrate Deion 
 ----- ------- ----------- 
 MPEG-H HEVC Video 1425 kbps 2160p / 23.976 fps / 16:9 / Main 10 @ Level 5.1 @ High / 10 bits / HDR10 / BT.2020
 * MPEG-H HEVC Video 2159 kbps 1080p / 23.976 fps / 16:9 / Main 10 @ Level 5.1 @ High / 10 bits / Dolby Vision / BT.2020

 FILES:

 Name Time In Length Size Total Bitrate 
 ---- ------- ------ ---- ------------- 
 00582.M2TS 0:00:00.000 0:00:07.006 3,563,520 4,069 
 00583.M2TS 0:00:07.006 0:00:07.006 2,482,176 2,834 
 00584.M2TS 0:00:14.013 0:00:07.006 4,024,320 4,595 

 CHAPTERS:

 Number Time In Length Avg Video Rate Max 1-Sec Rate Max 1-Sec Time Max 5-Sec Rate Max 5-Sec Time Max 10Sec Rate Max 10Sec Time Avg Frame Size Max Frame Size Max Frame Time 
 ------ ------- ------ -------------- -------------- -------------- -------------- -------------- -------------- -------------- -------------- -------------- -------------- 
 1 0:00:00.000 0:00:07.006 1,699 kbps 2,744 kbps 00:00:00.667 1,726 kbps 00:00:00.750 0 kbps 00:00:00.000 0 bytes 161,609 bytes 00:00:00.792 
 2 0:00:07.006 0:00:07.006 660 kbps 2,077 kbps 00:00:13.012 754 kbps 00:00:09.008 0 kbps 00:00:00.000 0 bytes 207,545 bytes 00:00:14.013 
 3 0:00:14.013 0:00:07.006 1,915 kbps 3,561 kbps 00:00:14.681 2,248 kbps 00:00:14.764 0 kbps 00:00:00.000 0 bytes 208,827 bytes 00:00:14.806 

 STREAM DIAGNOSTICS:

 File PID Type Codec Language Seconds Bitrate Bytes Packets 
 ---- --- ---- ----- -------- -------------- -------------- ------------- ----- 
 00582.M2TS 4113 (0x1011) 0x24 HEVC 6.882 1,681 1,446,384 7,958 
 00582.M2TS 4117 (0x1015) 0x24 HEVC 6.882 2,199 1,891,334 10,364 
 00583.M2TS 4113 (0x1011) 0x24 HEVC 6.882 480 412,496 2,303 
 00583.M2TS 4117 (0x1015) 0x24 HEVC 6.882 2,199 1,891,334 10,364 
 00584.M2TS 4113 (0x1011) 0x24 HEVC 6.882 2,191 1,884,494 10,335 
 00584.M2TS 4117 (0x1015) 0x24 HEVC 6.882 2,199 1,891,334 10,364

QUICK SUMMARY:

Disc Title: Sonic The Hedgehog
Disc Label: Sonic.the.Hedgehog.2020.UHD.BluRay.2160p.HEVC.TrueHD.Atmos.7.1-BeyondHD
Disc Size: 63,100,477,972 bytes
Protection: AACS2
Playlist: 01164.MPLS
Size: 10,070,016 bytes
Length: 0:00:21.020
Total Bitrate: 3.83 Mbps
Video: MPEG-H HEVC Video / 1425 kbps / 2160p / 23.976 fps / 16:9 / Main 10 @ Level 5.1 @ High / 10 bits / HDR10 / BT.2020
* Video: MPEG-H HEVC Video / 2159 kbps / 1080p / 23.976 fps / 16:9 / Main 10 @ Level 5.1 @ High / 10 bits / Dolby Vision / BT.2020


********************
PLAYLIST: 01165.MPLS
********************


Код:
 Total Video 
 Title Codec Length Movie Size Disc Size Bitrate Bitrate Main Audio Track Secondary Audio Track
 ----- ------ ------- -------------- -------------- ------- ------- ------------------ ---------------------
 01165.MPLS HEVC 0:00:21 10,924,032 63,100,477,972 4.16 1.73
Код:
 DISC INFO:

 Disc Title: Sonic The Hedgehog
 Disc Label: Sonic.the.Hedgehog.2020.UHD.BluRay.2160p.HEVC.TrueHD.Atmos.7.1-BeyondHD
 Disc Size: 63,100,477,972 bytes
 Protection: AACS2
 Extras: Ultra HD, BD-Java
 BDInfo: 0.7.5.5

 PLAYLIST REPORT:

 Name: 01165.MPLS
 Length: 0:00:21.020 (h:m:s.ms)
 Size: 10,924,032 bytes
 Total Bitrate: 4.16 Mbps

 (*) Indicates included stream hidden by this playlist.

 VIDEO:

 Codec Bitrate Deion 
 ----- ------- ----------- 
 MPEG-H HEVC Video 1732 kbps 2160p / 23.976 fps / 16:9 / Main 10 @ Level 5.1 @ High / 10 bits / HDR10 / BT.2020
 * MPEG-H HEVC Video 2159 kbps 1080p / 23.976 fps / 16:9 / Main 10 @ Level 5.1 @ High / 10 bits / Dolby Vision / BT.2020

 FILES:

 Name Time In Length Size Total Bitrate 
 ---- ------- ------ ---- ------------- 
 00585.M2TS 0:00:00.000 0:00:07.006 3,194,880 3,648 
 00586.M2TS 0:00:07.006 0:00:07.006 3,237,888 3,697 
 00587.M2TS 0:00:14.013 0:00:07.006 4,491,264 5,128 

 CHAPTERS:

 Number Time In Length Avg Video Rate Max 1-Sec Rate Max 1-Sec Time Max 5-Sec Rate Max 5-Sec Time Max 10Sec Rate Max 10Sec Time Avg Frame Size Max Frame Size Max Frame Time 
 ------ ------- ------ -------------- -------------- -------------- -------------- -------------- -------------- -------------- -------------- -------------- -------------- 
 1 0:00:00.000 0:00:07.006 1,378 kbps 2,046 kbps 00:00:06.005 1,298 kbps 00:00:02.001 0 kbps 00:00:00.000 0 bytes 118,985 bytes 00:00:07.006 
 2 0:00:07.006 0:00:07.006 1,440 kbps 3,141 kbps 00:00:13.012 1,551 kbps 00:00:09.008 0 kbps 00:00:00.000 0 bytes 250,788 bytes 00:00:14.013 
 3 0:00:14.013 0:00:07.006 2,377 kbps 4,354 kbps 00:00:14.764 2,780 kbps 00:00:14.764 0 kbps 00:00:00.000 0 bytes 251,749 bytes 00:00:14.806 

 STREAM DIAGNOSTICS:

 File PID Type Codec Language Seconds Bitrate Bytes Packets 
 ---- --- ---- ----- -------- -------------- -------------- ------------- ----- 
 00585.M2TS 4113 (0x1011) 0x24 HEVC 6.882 1,265 1,088,253 6,015 
 00585.M2TS 4117 (0x1015) 0x24 HEVC 6.882 2,199 1,891,334 10,364 
 00586.M2TS 4113 (0x1011) 0x24 HEVC 6.882 1,313 1,129,792 6,233 
 00586.M2TS 4117 (0x1015) 0x24 HEVC 6.882 2,199 1,891,334 10,364 
 00587.M2TS 4113 (0x1011) 0x24 HEVC 6.882 2,712 2,332,666 12,773 
 00587.M2TS 4117 (0x1015) 0x24 HEVC 6.882 2,199 1,891,334 10,364

QUICK SUMMARY:

Disc Title: Sonic The Hedgehog
Disc Label: Sonic.the.Hedgehog.2020.UHD.BluRay.2160p.HEVC.TrueHD.Atmos.7.1-BeyondHD
Disc Size: 63,100,477,972 bytes
Protection: AACS2
Playlist: 01165.MPLS
Size: 10,924,032 bytes
Length: 0:00:21.020
Total Bitrate: 4.16 Mbps
Video: MPEG-H HEVC Video / 1732 kbps / 2160p / 23.976 fps / 16:9 / Main 10 @ Level 5.1 @ High / 10 bits / HDR10 / BT.2020
* Video: MPEG-H HEVC Video / 2159 kbps / 1080p / 23.976 fps / 16:9 / Main 10 @ Level 5.1 @ High / 10 bits / Dolby Vision / BT.2020


********************
PLAYLIST: 01168.MPLS
********************


Код:
 Total Video 
 Title Codec Length Movie Size Disc Size Bitrate Bitrate Main Audio Track Secondary Audio Track
 ----- ------ ------- -------------- -------------- ------- ------- ------------------ ---------------------
 01168.MPLS HEVC 0:00:21 8,706,048 63,100,477,972 3.31 0.92
Код:
 DISC INFO:

 Disc Title: Sonic The Hedgehog
 Disc Label: Sonic.the.Hedgehog.2020.UHD.BluRay.2160p.HEVC.TrueHD.Atmos.7.1-BeyondHD
 Disc Size: 63,100,477,972 bytes
 Protection: AACS2
 Extras: Ultra HD, BD-Java
 BDInfo: 0.7.5.5

 PLAYLIST REPORT:

 Name: 01168.MPLS
 Length: 0:00:21.020 (h:m:s.ms)
 Size: 8,706,048 bytes
 Total Bitrate: 3.31 Mbps

 (*) Indicates included stream hidden by this playlist.

 VIDEO:

 Codec Bitrate Deion 
 ----- ------- ----------- 
 MPEG-H HEVC Video 924 kbps 2160p / 23.976 fps / 16:9 / Main 10 @ Level 5.1 @ High / 10 bits / HDR10 / BT.2020
 * MPEG-H HEVC Video 2159 kbps 1080p / 23.976 fps / 16:9 / Main 10 @ Level 5.1 @ High / 10 bits / Dolby Vision / BT.2020

 FILES:

 Name Time In Length Size Total Bitrate 
 ---- ------- ------ ---- ------------- 
 00340.M2TS 0:00:00.000 0:00:07.006 2,623,488 2,995 
 00601.M2TS 0:00:07.006 0:00:07.006 2,979,840 3,402 
 00602.M2TS 0:00:14.013 0:00:07.006 3,102,720 3,542 

 CHAPTERS:

 Number Time In Length Avg Video Rate Max 1-Sec Rate Max 1-Sec Time Max 5-Sec Rate Max 5-Sec Time Max 10Sec Rate Max 10Sec Time Avg Frame Size Max Frame Size Max Frame Time 
 ------ ------- ------ -------------- -------------- -------------- -------------- -------------- -------------- -------------- -------------- -------------- -------------- 
 1 0:00:00.000 0:00:07.006 727 kbps 1,284 kbps 00:00:06.005 703 kbps 00:00:02.001 0 kbps 00:00:00.000 0 bytes 91,713 bytes 00:00:07.006 
 2 0:00:07.006 0:00:07.006 1,022 kbps 1,734 kbps 00:00:13.012 1,067 kbps 00:00:09.008 0 kbps 00:00:00.000 0 bytes 105,791 bytes 00:00:14.013 
 3 0:00:14.013 0:00:07.006 1,024 kbps 1,857 kbps 00:00:14.764 1,195 kbps 00:00:14.764 0 kbps 00:00:00.000 0 bytes 106,025 bytes 00:00:14.806 

 STREAM DIAGNOSTICS:

 File PID Type Codec Language Seconds Bitrate Bytes Packets 
 ---- --- ---- ----- -------- -------------- -------------- ------------- ----- 
 00340.M2TS 4113 (0x1011) 0x24 HEVC 6.882 634 544,992 3,062 
 00340.M2TS 4117 (0x1015) 0x24 HEVC 6.882 2,199 1,891,334 10,364 
 00601.M2TS 4113 (0x1011) 0x24 HEVC 6.882 1,024 881,224 4,891 
 00601.M2TS 4117 (0x1015) 0x24 HEVC 6.882 2,199 1,891,334 10,364 
 00602.M2TS 4113 (0x1011) 0x24 HEVC 6.882 1,165 1,002,377 5,550 
 00602.M2TS 4117 (0x1015) 0x24 HEVC 6.882 2,199 1,891,334 10,364

QUICK SUMMARY:

Disc Title: Sonic The Hedgehog
Disc Label: Sonic.the.Hedgehog.2020.UHD.BluRay.2160p.HEVC.TrueHD.Atmos.7.1-BeyondHD
Disc Size: 63,100,477,972 bytes
Protection: AACS2
Playlist: 01168.MPLS
Size: 8,706,048 bytes
Length: 0:00:21.020
Total Bitrate: 3.31 Mbps
Video: MPEG-H HEVC Video / 924 kbps / 2160p / 23.976 fps / 16:9 / Main 10 @ Level 5.1 @ High / 10 bits / HDR10 / BT.2020
* Video: MPEG-H HEVC Video / 2159 kbps / 1080p / 23.976 fps / 16:9 / Main 10 @ Level 5.1 @ High / 10 bits / Dolby Vision / BT.2020


********************
PLAYLIST: 01169.MPLS
********************


Код:
 Total Video 
 Title Codec Length Movie Size Disc Size Bitrate Bitrate Main Audio Track Secondary Audio Track
 ----- ------ ------- -------------- -------------- ------- ------- ------------------ ---------------------
 01169.MPLS HEVC 0:00:21 9,320,448 63,100,477,972 3.55 1.15
Код:
 DISC INFO:

 Disc Title: Sonic The Hedgehog
 Disc Label: Sonic.the.Hedgehog.2020.UHD.BluRay.2160p.HEVC.TrueHD.Atmos.7.1-BeyondHD
 Disc Size: 63,100,477,972 bytes
 Protection: AACS2
 Extras: Ultra HD, BD-Java
 BDInfo: 0.7.5.5

 PLAYLIST REPORT:

 Name: 01169.MPLS
 Length: 0:00:21.020 (h:m:s.ms)
 Size: 9,320,448 bytes
 Total Bitrate: 3.55 Mbps

 (*) Indicates included stream hidden by this playlist.

 VIDEO:

 Codec Bitrate Deion 
 ----- ------- ----------- 
 MPEG-H HEVC Video 1145 kbps 2160p / 23.976 fps / 16:9 / Main 10 @ Level 5.1 @ High / 10 bits / HDR10 / BT.2020
 * MPEG-H HEVC Video 2159 kbps 1080p / 23.976 fps / 16:9 / Main 10 @ Level 5.1 @ High / 10 bits / Dolby Vision / BT.2020

 FILES:

 Name Time In Length Size Total Bitrate 
 ---- ------- ------ ---- ------------- 
 00595.M2TS 0:00:00.000 0:00:07.006 2,893,824 3,304 
 00596.M2TS 0:00:07.006 0:00:07.006 3,391,488 3,872 
 00597.M2TS 0:00:14.013 0:00:07.006 3,035,136 3,465 

 CHAPTERS:

 Number Time In Length Avg Video Rate Max 1-Sec Rate Max 1-Sec Time Max 5-Sec Rate Max 5-Sec Time Max 10Sec Rate Max 10Sec Time Avg Frame Size Max Frame Size Max Frame Time 
 ------ ------- ------ -------------- -------------- -------------- -------------- -------------- -------------- -------------- -------------- -------------- -------------- 
 1 0:00:00.000 0:00:07.006 1,065 kbps 1,898 kbps 00:00:06.005 1,030 kbps 00:00:02.001 0 kbps 00:00:00.000 0 bytes 137,198 bytes 00:00:07.006 
 2 0:00:07.006 0:00:07.006 1,416 kbps 2,385 kbps 00:00:07.757 1,525 kbps 00:00:07.757 0 kbps 00:00:00.000 0 bytes 137,459 bytes 00:00:07.799 
 3 0:00:14.013 0:00:07.006 953 kbps 1,730 kbps 00:00:14.764 1,111 kbps 00:00:14.764 0 kbps 00:00:00.000 0 bytes 98,852 bytes 00:00:14.806 

 STREAM DIAGNOSTICS:

 File PID Type Codec Language Seconds Bitrate Bytes Packets 
 ---- --- ---- ----- -------- -------------- -------------- ------------- ----- 
 00595.M2TS 4113 (0x1011) 0x24 HEVC 6.882 925 795,817 4,455 
 00595.M2TS 4117 (0x1015) 0x24 HEVC 6.882 2,199 1,891,334 10,364 
 00596.M2TS 4113 (0x1011) 0x24 HEVC 6.882 1,488 1,279,605 7,054 
 00596.M2TS 4117 (0x1015) 0x24 HEVC 6.882 2,199 1,891,334 10,364 
 00597.M2TS 4113 (0x1011) 0x24 HEVC 6.882 1,085 933,240 5,199 
 00597.M2TS 4117 (0x1015) 0x24 HEVC 6.882 2,199 1,891,334 10,364

QUICK SUMMARY:

Disc Title: Sonic The Hedgehog
Disc Label: Sonic.the.Hedgehog.2020.UHD.BluRay.2160p.HEVC.TrueHD.Atmos.7.1-BeyondHD
Disc Size: 63,100,477,972 bytes
Protection: AACS2
Playlist: 01169.MPLS
Size: 9,320,448 bytes
Length: 0:00:21.020
Total Bitrate: 3.55 Mbps
Video: MPEG-H HEVC Video / 1145 kbps / 2160p / 23.976 fps / 16:9 / Main 10 @ Level 5.1 @ High / 10 bits / HDR10 / BT.2020
* Video: MPEG-H HEVC Video / 2159 kbps / 1080p / 23.976 fps / 16:9 / Main 10 @ Level 5.1 @ High / 10 bits / Dolby Vision / BT.2020


********************
PLAYLIST: 01170.MPLS
********************


Код:
 Total Video 
 Title Codec Length Movie Size Disc Size Bitrate Bitrate Main Audio Track Secondary Audio Track
 ----- ------ ------- -------------- -------------- ------- ------- ------------------ ---------------------
 01170.MPLS HEVC 0:00:21 9,228,288 63,100,477,972 3.51 1.12
Код:
 DISC INFO:

 Disc Title: Sonic The Hedgehog
 Disc Label: Sonic.the.Hedgehog.2020.UHD.BluRay.2160p.HEVC.TrueHD.Atmos.7.1-BeyondHD
 Disc Size: 63,100,477,972 bytes
 Protection: AACS2
 Extras: Ultra HD, BD-Java
 BDInfo: 0.7.5.5

 PLAYLIST REPORT:

 Name: 01170.MPLS
 Length: 0:00:21.020 (h:m:s.ms)
 Size: 9,228,288 bytes
 Total Bitrate: 3.51 Mbps

 (*) Indicates included stream hidden by this playlist.

 VIDEO:

 Codec Bitrate Deion 
 ----- ------- ----------- 
 MPEG-H HEVC Video 1120 kbps 2160p / 23.976 fps / 16:9 / Main 10 @ Level 5.1 @ High / 10 bits / HDR10 / BT.2020
 * MPEG-H HEVC Video 2159 kbps 1080p / 23.976 fps / 16:9 / Main 10 @ Level 5.1 @ High / 10 bits / Dolby Vision / BT.2020

 FILES:

 Name Time In Length Size Total Bitrate 
 ---- ------- ------ ---- ------------- 
 00598.M2TS 0:00:00.000 0:00:07.006 2,660,352 3,037 
 00599.M2TS 0:00:07.006 0:00:07.006 2,562,048 2,925 
 00600.M2TS 0:00:14.013 0:00:07.006 4,005,888 4,574 

 CHAPTERS:

 Number Time In Length Avg Video Rate Max 1-Sec Rate Max 1-Sec Time Max 5-Sec Rate Max 5-Sec Time Max 10Sec Rate Max 10Sec Time Avg Frame Size Max Frame Size Max Frame Time 
 ------ ------- ------ -------------- -------------- -------------- -------------- -------------- -------------- -------------- -------------- -------------- -------------- 
 1 0:00:00.000 0:00:07.006 724 kbps 1,078 kbps 00:00:00.750 695 kbps 00:00:00.750 0 kbps 00:00:00.000 0 bytes 61,385 bytes 00:00:00.000 
 2 0:00:07.006 0:00:07.006 736 kbps 2,131 kbps 00:00:13.012 829 kbps 00:00:09.008 0 kbps 00:00:00.000 0 bytes 204,685 bytes 00:00:14.013 
 3 0:00:14.013 0:00:07.006 1,900 kbps 3,519 kbps 00:00:14.764 2,230 kbps 00:00:14.764 0 kbps 00:00:00.000 0 bytes 205,472 bytes 00:00:14.806 

 STREAM DIAGNOSTICS:

 File PID Type Codec Language Seconds Bitrate Bytes Packets 
 ---- --- ---- ----- -------- -------------- -------------- ------------- ----- 
 00598.M2TS 4113 (0x1011) 0x24 HEVC 6.882 679 584,060 3,244 
 00598.M2TS 4117 (0x1015) 0x24 HEVC 6.882 2,199 1,891,334 10,364 
 00599.M2TS 4113 (0x1011) 0x24 HEVC 6.882 570 490,097 2,728 
 00599.M2TS 4117 (0x1015) 0x24 HEVC 6.882 2,199 1,891,334 10,364 
 00600.M2TS 4113 (0x1011) 0x24 HEVC 6.882 2,173 1,869,131 10,255 
 00600.M2TS 4117 (0x1015) 0x24 HEVC 6.882 2,199 1,891,334 10,364

QUICK SUMMARY:

Disc Title: Sonic The Hedgehog
Disc Label: Sonic.the.Hedgehog.2020.UHD.BluRay.2160p.HEVC.TrueHD.Atmos.7.1-BeyondHD
Disc Size: 63,100,477,972 bytes
Protection: AACS2
Playlist: 01170.MPLS
Size: 9,228,288 bytes
Length: 0:00:21.020
Total Bitrate: 3.51 Mbps
Video: MPEG-H HEVC Video / 1120 kbps / 2160p / 23.976 fps / 16:9 / Main 10 @ Level 5.1 @ High / 10 bits / HDR10 / BT.2020
* Video: MPEG-H HEVC Video / 2159 kbps / 1080p / 23.976 fps / 16:9 / Main 10 @ Level 5.1 @ High / 10 bits / Dolby Vision / BT.2020
 

Вложения

  • 358,7 KB Просмотры: 0
    Личеров 0
    Сидеров 0
    Файлов 1.133
    Объем 58,8 GB

Привет!

Мы группа людей которые решили помочь другим в решении их проблем, а так же пользователям с поиском самых свежих и качественных инфопродуктов. За 4 с небольшим месяца мы создали этот форум на который заходят ежедневно тысячи человек и посещаемость постоянно растёт. Мы создали панель лицензирования для защиты PHP скриптов от воровства и SEO панель для мониторинга наших сайтов и выбора верной стратегии их развития. Мы надеемся что то что мы создали пригодится Вам и возможно Вы поможете нам развиваться и совершенствоваться вместе с Вами.

Статистика форума

Темы
406.656
Сообщения
465.106
Пользователи
84.674
Новый пользователь
Юрий 1990

Приложения форума для iOS и Android


У ркн там нет власти ;)
Приватные разговоры
Помощь Пользователи
    Вы не присоединились ни к одной комнате.