За последнюю неделю опубликовано 119 новых материалов.
Инструкция новичку Путеводитель по форуму Прокси для Telegram Показать подсказки , это бомба!

Скачать Соломон Кейн / Solomon Kane (2009) BDRip-AVC от ExKinoRay | D бесплатно через торрент

  • Поучаствуй (в качестве покупателя) в любых пяти совместных покупках (кроме завершённых и "Моментальных") и получи группу "Новичок" навсегда -> ссылка на раздел
  • Получай до 480 рублей за каждого приглашенного пользователя!
    представляем Вам очередное расширение партнерской программы, подробности описаны тут -> ссылка
  • 90% материалов доступно к скачиванию после простой регистрации!
    Если же ты хочешь скачивать материалы без требования оставлять отзывы то получи группу "Новичок", 10 способов повышения описаны тут -> ссылка
  • К сожалению количество битых ссылок растет и мы уже не можем их оперативно восстанавливать поэтому просим помощи у каждого нашего пользователя.
    С сегодняшнего дня, за каждую восстановленную ссылку мы заплатим Вам.
    Подробнее тут -> ссылка
  • Перенесем твои заслуги с другого ресурса!
    Мы понимаем как сложно прокачивать аккаунты на форумах, вроде раскачал аккаунт, а тут появляется ресурс в 100 раз круче но тоже с системой прокачки и снова качать аккаунт...
    Предлагаем вам перенести Ваши заслуги на другом подобном ресурсе к нам.
    Подробности описаны тут -> ссылка
  • Вы можете получать по 2.5% с каждой покупки и продажи на маркете! Подробности в теме Партнёрская программа
Если Вы не хотите скачивать, Вы всегда можетепосмотретьонлайн, просто нажмите кнопку ниже :

Открыть плеер

Torrent_Bot

Торрент-Бот
Бот форума
4 Окт 2016
124
95
20


Информация о фильме
Название: Соломон Кейн
Оригинальное название: Solomon Kane
Год выхода: 2009
Жанр: Фэнтези, боевик, приключения
Режиссер: Майкл Дж. Бассетт
В ролях: Джеймс Пьюрфой, Марк О`Нил, Роберт Орр, Ричард Райан, Франтишек Дик, Кристиан Данкли Кларк, Йен Уайт, Томас МакЭнхрой, Эндрю Витау, Роберт Расселл, Джеймс Бэбсон, Марек Вашут, Джофф Белл, Макс фон Сюдов, Лукас Стоун, Сэмюэл Рукин, Рэйчел Херд-Вуд, Патрик Херд-Вуд, Пит Постлетуэйт, Элис Крайдж, Изабель Бассетт, Мэттью Стирлинг, Кертис Мэттью, Лаура Бараник, Андреа Милтнер, Райан Джеймс, Маккензи Крук, Марк Хенсон, Филип Уинчестер, Стюарт Мур, Мадлен Бассет, Клара Лоу, Тодд Крамер, Тодд Бенсон, Майк Макгуффи, Филип Вэйли, Берил Несбитт, Джейсон Флеминг

О фильме:
Соломон Кейн — англичанин и наемный солдат, не раз прибегал к жестокости и разбою, чтобы удовлетворить свои прихоти. Бесчеловечные поступки довели Кейна до того, что душа пирата оказалась проклята. Но у Соломона есть еще возможность вернуться на истинный путь добра: отныне он — борец с темными силами. Лишь искоренив на Земле всех демонов и нечистую силу, Соломон Кейн может получить прощение. Фантастический боевик «Соломон Кейн» основан на рассказах Роберта Говарда.



Страна: Франция, Великобритания, Чехия
Студия: Davis-Films, Czech Anglo Productions, Wandering Star Pictures
Продолжительность: 01:44:10
Перевод: Профессиональный (полное дублирование)

Файл
Формат: MKV
Качество: BDRip-AVC
Видео: MPEG-4 AVC, 800x340, - 924 Кбит/с
Аудио: AAC-HE, 2 ch, - 76 Кбит/с
Субтитры: Русские, английские

MI
Общее
Уникальный идентификатор : 124951858327463504559828130016897742764 (0x5E00DA411BA664CF7F633C48B26337AC)
Полное имя : D:MOVIESSolomon.Kane.2009.BDRip-AVC.ExKinoRay.mkv
Формат : Matroska
Версия формата : Version 4 / Version 2
Размер файла : 744 Мбайт
Продолжительность : 1 ч. 44 м.
Общий поток : 999 Кбит/сек
Дата кодирования : UTC 2019-11-23 16:16:41
Программа кодирования : mkvmerge v35.0.0 ('All The Love In The World') 64-bit
Библиотека кодирования : libebml v1.3.9 + libmatroska v1.5.2

Видео
Идентификатор : 1
Формат : AVC
Формат/Информация : Advanced Video Codec
Профиль формата : High@L4.1
Параметр CABAC формата : Да
Параметр RefFrames формата : 12 кадров
Идентификатор кодека : V_MPEG4/ISO/AVC
Продолжительность : 1 ч. 44 м.
Битрейт : 924 Кбит/сек
Ширина : 800 пикселей
Высота : 340 пикселей
Соотношение сторон : 2,35:1
Режим частоты кадров : Постоянный
Частота кадров : 24,000 кадра/сек
Цветовое пространство : YUV
Субдискретизация насыщенности : 4:2:0
Битовая глубина : 8 бит
Тип развёртки : Прогрессивная
Бит/(Пиксели*Кадры) : 0.142
Размер потока : 686 Мбайт (92%)
Библиотека кодирования : x264 core 152 r2851kMod ba24899
Настройки программы : cabac=1 / ref=12 / deblock=1:-3:-2 / analyse=0x3:0x133 / me=umh / subme=10 / psy=1 / fade_compensate=0.00 / psy_rd=1.00:0.12 / mixed_ref=1 / me_range=32 / chroma_me=1 / trellis=2 / 8x8dct=1 / cqm=0 / deadzone=21,11 / fast_pskip=0 / chroma_qp_offset=-3 / threads=6 / lookahead_threads=1 / sliced_threads=0 / nr=0 / decimate=0 / interlaced=0 / bluray_compat=0 / constrained_intra=0 / bframes=12 / b_pyramid=2 / b_adapt=2 / b_bias=0 / direct=3 / weightb=1 / open_gop=0 / weightp=2 / keyint=240 / keyint_min=24 / scenecut=40 / intra_refresh=0 / rc_lookahead=40 / rc=2pass / mbtree=1 / bitrate=924 / ratetol=1.0 / qcomp=0.60 / qpmin=0 / qpmax=69 / qpstep=4 / cplxblur=20.0 / qblur=0.5 / ip_ratio=1.40 / aq=3:1.00
Default : Да
Forced : Нет

Аудио
Идентификатор : 2
Формат : AAC
Формат/Информация : Advanced Audio Codec
Профиль формата : HE-AAC / LC
Идентификатор кодека : A_AAC
Продолжительность : 1 ч. 44 м.
Битрейт : 76,0 Кбит/сек
Каналы : 2 канала
Расположение каналов : Front: L R
Частота : 48,0 КГц / 24,0 КГц
Частота кадров : 23,438 кадра/сек (1024 SPF)
Метод сжатия : С потерями
Задержка видео : 31 мс.
Размер потока : 56,6 Мбайт (8%)
Язык : Russian
Default : Да
Forced : Нет

Текст #1
Идентификатор : 3
Формат : UTF-8
Идентификатор кодека : S_TEXT/UTF8
Идентификатор кодека/Информация : UTF-8 Plain Text
Продолжительность : 1 ч. 36 м.
Битрейт : 57 бит/сек
ElementCount : 798
Размер потока : 40,7 Кбайт (0%)
Заголовок : Full | Blu-ray | UTF-8
Язык : Russian
Default : Нет
Forced : Нет

Текст #2
Идентификатор : 4
Формат : UTF-8
Идентификатор кодека : S_TEXT/UTF8
Идентификатор кодека/Информация : UTF-8 Plain Text
Продолжительность : 1 ч. 34 м.
Битрейт : 32 бит/сек
ElementCount : 819
Размер потока : 22,7 Кбайт (0%)
Заголовок : Full | Blu-ray | UTF-8
Язык : English
Default : Нет
Forced : Нет

Меню
00:00:00.000 : en:Мерзкие язычники
00:10:41.958 : en:Сны
00:15:19.833 : en:Семья
00:30:10.042 : en:Дети дьявола
00:35:32.500 : en:Я вымощу себе дорогу в ад
00:49:08.167 : en:Восхваление Бога
01:01:06.292 : en:Она пропала
01:04:03.917 : en:Распять его
01:09:37.875 : en:Добро пожаловать домой
01:17:59.167 : en:Зеркала и магия
01:23:45.750 : en:Искупление
01:35:15.167 : en:Финальные титры
Скриншоты

 

Вложения

  • 15,6 KB Просмотры: 0
    Личеров 0
    Сидеров 0
    Файлов 1
    Объем 744,4 MB
Ваш e-mail не будет опубликован. Он потребуется для подтверждения Вашего поста.
Оформление текста Нажмите «Ввод», чтобы отправить ответ.

Привет!

Мы группа людей которые решили помочь другим в решении их проблем, а так же пользователям с поиском самых свежих и качественных инфопродуктов. За 4 с небольшим месяца мы создали этот форум на который заходят ежедневно тысячи человек и посещаемость постоянно растёт. Мы создали панель лицензирования для защиты PHP скриптов от воровства и SEO панель для мониторинга наших сайтов и выбора верной стратегии их развития. Мы надеемся что то что мы создали пригодится Вам и возможно Вы поможете нам развиваться и совершенствоваться вместе с Вами.

Статистика форума

Темы
378.765
Сообщения
418.180
Пользователи
49.915
Новый пользователь
Jaglion

Приложения форума для iOS и Android


У ркн там нет власти ;)
Приватные разговоры
Помощь Пользователи
    Вы не присоединились ни к одной комнате.