За последнюю неделю опубликовано 102 новых материалов.
Инструкция новичку Путеводитель по форуму Прокси для Telegram Показать подсказки , это бомба!

Скачать Соломенные псы / Straw Dogs (2011) BDRemux 1080p | EUR Transfer | Лицензия бесплатно через торрент

  • Поучаствуй (в качестве покупателя) в любых пяти совместных покупках (кроме завершённых и "Моментальных") и получи группу "Новичок" навсегда -> ссылка на раздел
  • Получай до 480 рублей за каждого приглашенного пользователя!
    представляем Вам очередное расширение партнерской программы, подробности описаны тут -> ссылка
  • 90% материалов доступно к скачиванию после простой регистрации!
    Если же ты хочешь скачивать материалы без требования оставлять отзывы то получи группу "Новичок", 10 способов повышения описаны тут -> ссылка
  • К сожалению количество битых ссылок растет и мы уже не можем их оперативно восстанавливать поэтому просим помощи у каждого нашего пользователя.
    С сегодняшнего дня, за каждую восстановленную ссылку мы заплатим Вам.
    Подробнее тут -> ссылка
  • Перенесем твои заслуги с другого ресурса!
    Мы понимаем как сложно прокачивать аккаунты на форумах, вроде раскачал аккаунт, а тут появляется ресурс в 100 раз круче но тоже с системой прокачки и снова качать аккаунт...
    Предлагаем вам перенести Ваши заслуги на другом подобном ресурсе к нам.
    Подробности описаны тут -> ссылка
  • Вы можете получать по 2.5% с каждой покупки и продажи на маркете! Подробности в теме Партнёрская программа
Если Вы не хотите скачивать, Вы всегда можетепосмотретьонлайн, просто нажмите кнопку ниже :

Открыть плеер

Torrent_Bot

Торрент-Бот
Бот форума
4 Окт 2016
102
152
20




Название: Соломенные псы
Оригинальное название: Straw Dogs
Год выхода: 2011
Жанр: триллер, драма, криминал
Режиссер: Род Лури
В ролях: Джеймс Марсден, Кейт Босворт, Александр Скарсгард, Джеймс Вудс, Доминик Пёрселл, Риз Койро, Билли Луш, Лас Алонсо, Уилла Холлэнд, Уолтон Гоггинс

О фильме:
Дэвид и Эми — молодая благополучная пара, которая переезжает в маленький провинциальный городок, где безмятежная идиллия скоро оборачивается настоящим адом. На поверхность выходят страшные секреты прошлого, и смертоносные страсти вырываются из-под контроля. Загнанные в ловушку группой «местных» во главе с безжалостным хищником, герои вынуждены провести ночь непрерывной кровавой резни. Не имея путей к отступлению, Дэвид и Эми понимают: их единственный выход — стать ещё более безумными, чем их беспощадные палачи.




Страна: США
Студия: Screen Gems, Battleplan Productions
Продолжительность: 01:49:43
Перевод: Профессиональный (дублированный)
Субтитры: Русские (Full), Украинские (Full), Английские (Full)

Формат: MKV
Качество: BDRemux 1080p
Видео: MPEG4/AVC/H.264 / 1920x1080 / 24.9 Mbps / 23.976 fps
Звук:
Russian: DD Audio / 5.1 / 48 kHz / 640 kbps - Дубляж
English: DTS-HD MA / 5.1 / 48 kHz / 2193 kbps - Оригинал

MediaInfo
Format : Matroska
Format version : Version 4 / Version 2
File size : 21.3 GiB
Duration : 1 h 49 min
Overall bit rate mode : Variable
Overall bit rate : 27.8 Mb/s
Movie name : Соломенные псы / Straw Dogs (2011) BDRemux 1080p | =Ved-Uk=
Encoded date : UTC 2019-06-13 08:38:40
Writing application : mkvmerge v22.0.0 ('At The End Of The World') 64-bit
Writing library : libebml v1.3.5 + libmatroska v1.4.8

Video
ID : 1
Format : AVC
Format/Info : Advanced Video Codec
Format profile : High@L4.1
Format settings, CABAC : Yes
Format settings, RefFrames : 2 frames
Format settings, GOP : M=1, N=10
Codec ID : V_MPEG4/ISO/AVC
Duration : 1 h 49 min
Bit rate mode : Variable
Bit rate : 24.9 Mb/s
Width : 1 920 pixels
Height : 1 080 pixels
Display aspect ratio : 16:9
Frame rate mode : Constant
Frame rate : 23.976 (24000/1001) FPS
Color space : YUV
Chroma subsampling : 4:2:0
Bit depth : 8 bits
Scan type : Progressive
Bits/(Pixel*Frame) : 0.501
Stream size : 19.1 GiB (90%)
Title : Соломенные псы / Straw Dogs (2011)
Language : English
Default : Yes
Forced : No

Audio #1
ID : 2
Format : AC-3
Format/Info : Audio Coding 3
Format settings, Endianness : Big
Codec ID : A_AC3
Duration : 1 h 49 min
Bit rate mode : Constant
Bit rate : 640 kb/s
Channel(s) : 6 channels
Channel positions : Front: L C R, Side: L R, LFE
Sampling rate : 48.0 kHz
Frame rate : 31.250 FPS (1536 SPF)
Bit depth : 16 bits
Compression mode : Lossy
Stream size : 502 MiB (2%)
Title : Дубляж
Language : Russian
Service kind : Complete Main
Default : Yes
Forced : No

Audio #2
ID : 3
Format : DTS
Format/Info : Digital Theater Systems
Format profile : MA / Core
Mode : 16
Format settings, Endianness : Big
Codec ID : A_DTS
Duration : 1 h 49 min
Bit rate mode : Variable / Constant
Bit rate : 2 193 kb/s / 1 509 kb/s
Channel(s) : 6 channels
Channel positions : Front: L C R, Side: L R, LFE
Sampling rate : 48.0 kHz
Frame rate : 93.750 FPS (512 SPF)
Bit depth : 16 bits
Compression mode : Lossless / Lossy
Stream size : 1.68 GiB (8%)
Title : Оригинал
Language : English
Default : No
Forced : No

Text #1
ID : 4
Format : UTF-8
Codec ID : S_TEXT/UTF8
Codec ID/Info : UTF-8 Plain Text
Duration : 1 h 42 min
Bit rate : 99 b/s
Count of elements : 1640
Stream size : 74.2 KiB (0%)
Title : Full
Language : Russian
Default : No
Forced : No

Text #2
ID : 5
Format : UTF-8
Codec ID : S_TEXT/UTF8
Codec ID/Info : UTF-8 Plain Text
Duration : 1 h 42 min
Bit rate : 99 b/s
Count of elements : 1984
Stream size : 74.7 KiB (0%)
Title : Full
Language : Ukrainian
Default : No
Forced : No

Text #3
ID : 6
Format : UTF-8
Codec ID : S_TEXT/UTF8
Codec ID/Info : UTF-8 Plain Text
Duration : 1 h 42 min
Bit rate : 71 b/s
Count of elements : 1981
Stream size : 53.2 KiB (0%)
Title : Full
Language : English
Default : No
Forced : No

Menu
00:00:00.000 : :Chapter 01
00:09:51.674 : :Chapter 02
00:15:05.988 : :Chapter 03
00:21:54.563 : :Chapter 04
00:27:53.129 : :Chapter 05
00:35:26.916 : :Chapter 06
00:43:26.186 : :Chapter 07
00:47:38.105 : :Chapter 08
00:54:21.925 : :Chapter 09
00:58:04.564 : :Chapter 10
01:05:47.777 : :Chapter 11
01:12:08.157 : :Chapter 12
01:19:26.553 : :Chapter 13
01:25:03.389 : :Chapter 14
01:29:27.987 : :Chapter 15
01:37:12.034 : :Chapter 16
Скриншоты
 

Вложения

  • 107,4 KB Просмотры: 1
    Личеров 0
    Сидеров 0
    Файлов 1
    Объем 21,3 GB

Привет!

Мы группа людей которые решили помочь другим в решении их проблем, а так же пользователям с поиском самых свежих и качественных инфопродуктов. За 4 с небольшим месяца мы создали этот форум на который заходят ежедневно тысячи человек и посещаемость постоянно растёт. Мы создали панель лицензирования для защиты PHP скриптов от воровства и SEO панель для мониторинга наших сайтов и выбора верной стратегии их развития. Мы надеемся что то что мы создали пригодится Вам и возможно Вы поможете нам развиваться и совершенствоваться вместе с Вами.

Статистика форума

Темы
404.573
Сообщения
461.396
Пользователи
80.200
Новый пользователь
HamHam

Приложения форума для iOS и Android


У ркн там нет власти ;)
Приватные разговоры
Помощь Пользователи
    Вы не присоединились ни к одной комнате.