За последнюю неделю опубликовано 52 новых материалов.
Инструкция новичку Путеводитель по форуму Прокси для Telegram Показать подсказки , это бомба!

Скачать Солдаты дракона / Dragon Soldiers (2020) WEB-DL 1080p | L2 бесплатно через торрент

  • Поучаствуй (в качестве покупателя) в любых пяти совместных покупках (кроме завершённых и "Моментальных") и получи группу "Новичок" навсегда -> ссылка на раздел
  • Получай до 480 рублей за каждого приглашенного пользователя!
    представляем Вам очередное расширение партнерской программы, подробности описаны тут -> ссылка
  • 90% материалов доступно к скачиванию после простой регистрации!
    Если же ты хочешь скачивать материалы без требования оставлять отзывы то получи группу "Новичок", 10 способов повышения описаны тут -> ссылка
  • К сожалению количество битых ссылок растет и мы уже не можем их оперативно восстанавливать поэтому просим помощи у каждого нашего пользователя.
    С сегодняшнего дня, за каждую восстановленную ссылку мы заплатим Вам.
    Подробнее тут -> ссылка
  • Перенесем твои заслуги с другого ресурса!
    Мы понимаем как сложно прокачивать аккаунты на форумах, вроде раскачал аккаунт, а тут появляется ресурс в 100 раз круче но тоже с системой прокачки и снова качать аккаунт...
    Предлагаем вам перенести Ваши заслуги на другом подобном ресурсе к нам.
    Подробности описаны тут -> ссылка
  • Вы можете получать по 2.5% с каждой покупки и продажи на маркете! Подробности в теме Партнёрская программа
Если Вы не хотите скачивать, Вы всегда можетепосмотретьонлайн, просто нажмите кнопку ниже :

Открыть плеер

Torrent_Bot

Торрент-Бот
Бот форума
4 Окт 2016
93
160
20


Информация о фильме
Название: Солдаты дракона
Оригинальное название: Dragon Soldiers
Год выхода: 2020
Жанр: Фэнтези, боевик
Режиссер: Хэнк Брэкстэн
В ролях: Таркан Доспил, Рубен Пла, Антуоне Торберт, Хит С. Хейн, Дэн Синклер, Ариэль Брачфелд, Мотаун Морис, Батч МакКейн, Энн МакДэниелс, Рон Вишер, Кристофер Майкл, Ник Линенбергер

О фильме:
Мэр небольшого городка нанимает группу бывших военных, чтобы очистить местные леса и горы от опасных бездомных, которые начали сбиваться в банду. Но прибыв на место, наёмники понимают, что всё не так просто, и бродяги создали не банду, а культ поклонения мистическому существу, которое выжигает леса и пожирает людей живьём.




Страна: США
Студия: Automatic Entertainment
Продолжительность: 01:29:54
Перевод: Любительский двухголосый | LakeFilms

Файл
Кодек: AVC
Качество: WEB-DL 1080p | Dragon.Soldiers.2020.1080p.WEB-DL.DD5.1.H264-FGT
Видео: MPEG-4 AVC, 5140 Kбит/с, 1916x1076, 23.976 кадр/с
Аудио #1: Русский (АС3, 2 ch, 256 Кбит/с, 48.0 KHz) Любительский (двухголосый, закадровый) LakeFilms
Аудио #2: Английский (АС3, 6 ch, 384 Кбит/с, 48.0 KHz)
Субтитры: английские
► Без Рекламы!
Трейлер
MediaInfo
Источник: Dragon.Soldiers.2020.1080p.WEB-DL.DD5.1.H264-FGT
General
Unique ID : 187943336422183245597678707353749848943 (0x8D6491E801114B37B4F4504FF908836F)
Complete name : Dragon.Soldiers.2020.WEB-DL.1080p.mkv
Format : Matroska
Format version : Version 4
File size : 3.63 GiB
Duration : 1 h 29 min
Overall bit rate : 5 782 kb/s
Encoded date : UTC 2020-08-23 20:42:12
Writing application : mkvmerge v7.1.0 ('Good Love') 64bit built on Jul 27 2014 13:06:55
Writing library : libebml v1.3.0 + libmatroska v1.4.1

Video
ID : 1
Format : AVC
Format/Info : Advanced Video Codec
Format profile : [email protected]
Format settings : CABAC / 4 Ref Frames
Format settings, CABAC : Yes
Format settings, Reference fra : 4 frames
Codec ID : V_MPEG4/ISO/AVC
Duration : 1 h 29 min
Bit rate : 5 140 kb/s
Width : 1 916 pixels
Height : 1 076 pixels
Display aspect ratio : 16:9
Frame rate mode : Constant
Frame rate : 23.976 (24000/1001) FPS
Color space : YUV
Chroma subsampling : 4:2:0
Bit depth : 8 bits
Scan type : Progressive
Bits/(Pixel*Frame) : 0.104
Stream size : 3.23 GiB (89%)
Language : English
Default : Yes
Forced : No
Color range : Limited
Color primaries : BT.709
Transfer characteristics : BT.709
Matrix coefficients : BT.709

Audio #1
ID : 2
Format : AC-3
Format/Info : Audio Coding 3
Commercial name : Dolby Digital
Codec ID : A_AC3
Duration : 1 h 29 min
Bit rate mode : Constant
Bit rate : 256 kb/s
Channel(s) : 2 channels
Channel layout : L R
Sampling rate : 48.0 kHz
Frame rate : 31.250 FPS (1536 SPF)
Compression mode : Lossy
Stream size : 165 MiB (4%)
Title : LakeFilms
Language : Russian
Service kind : Complete Main
Default : Yes
Forced : No

Audio #2
ID : 3
Format : AC-3
Format/Info : Audio Coding 3
Commercial name : Dolby Digital
Codec ID : A_AC3
Duration : 1 h 29 min
Bit rate mode : Constant
Bit rate : 384 kb/s
Channel(s) : 6 channels
Channel layout : L R C LFE Ls Rs
Sampling rate : 48.0 kHz
Frame rate : 31.250 FPS (1536 SPF)
Compression mode : Lossy
Stream size : 247 MiB (7%)
Language : English
Service kind : Complete Main
Default : No
Forced : No

Text
ID : 4
Format : UTF-8
Codec ID : S_TEXT/UTF8
Codec ID/Info : UTF-8 Plain Text
Duration : 1 h 25 min
Bit rate : 36 b/s
Count of elements : 897
Stream size : 23.0 KiB (0%)
Language : English
Default : No
Forced : No

Menu
00:00:00.000 : en:Chapter 1
00:25:10.592 : en:Chapter 2
00:45:46.410 : en:Chapter 3
01:07:28.210 : en:Chapter 4
01:27:07.805 : en:Chapter 5
Скриншоты
 

Вложения

  • 19,1 KB Просмотры: 0
    Личеров 0
    Сидеров 0
    Файлов 1
    Объем 3,6 GB

Привет!

Мы группа людей которые решили помочь другим в решении их проблем, а так же пользователям с поиском самых свежих и качественных инфопродуктов. За 4 с небольшим месяца мы создали этот форум на который заходят ежедневно тысячи человек и посещаемость постоянно растёт. Мы создали панель лицензирования для защиты PHP скриптов от воровства и SEO панель для мониторинга наших сайтов и выбора верной стратегии их развития. Мы надеемся что то что мы создали пригодится Вам и возможно Вы поможете нам развиваться и совершенствоваться вместе с Вами.

Статистика форума

Темы
406.648
Сообщения
465.114
Пользователи
84.619
Новый пользователь
genohe8890

Приложения форума для iOS и Android


У ркн там нет власти ;)
Приватные разговоры
Помощь Пользователи
    Вы не присоединились ни к одной комнате.